(RnB/Swing, UK Garage) [CDM] Craig David - Fill Me In - 2001, FLAC (tracks+.cue), lossless

Ответить на тему
Статистика раздачи
Размер:  373 MB   |    Зарегистрирован:  2 месяца 4 дня   |    Скачан:  0 раз

Полного источника не было: Никогда

 
   
 
 
Автор Сообщение

star21 ®

Пол: Женский

Стаж: 4 года 8 месяцев

Сообщений: 551945

Откуда: Екатеринбург

Создавать темы 08-Май-2020 13:20

[Цитировать]

Craig David / Fill Me In
Жанр: RnB/Swing, UK Garage
Носитель: CDM
Год издания: 2001
Издатель (лейбл): Wildstar Records
Номер по каталогу: 88100-2
Аудиокодек: FLAC (*.flac)
Тип рипа: tracks+.cue
Продолжительность: 52:09
Источник: обмен
Наличие сканов в содержимом раздачи: да
Треклист:
01. Craig David - Fill Me In (4:17)
02. Craig David - Fill Me In (Full Crew Mix) (4:16)
03. Craig David - Fill Me In (Blacksmith Mix) (6:24)
04. Craig David - Fill Me In (Sunship Remix) (5:54)
05. Craig David - Fill Me In (Artful Dodger Remix) (6:24)
06. Craig David - Fill Me In (Artful Dodger Bootleg Remix) (6:08)
07. Craig David - Fill Me In [Album Instrumental] (4:17)
08. Craig David - Fill Me In [Radio Edit] (3:53)
09. Craig David - Fill Me In [Live!] (10:36)

Лог создания рипа

X Lossless Decoder version 20170729 (150.3)
XLD extraction logfile from 2018-11-14 05:45:56 +0300
Craig David / Fill Me In [Single]
Used drive : HL-DT-ST DVDRAM GP08NU10 (revision JE01)Media type : Pressed CD
Ripper mode : XLD Secure RipperDisable audio cache : OK for the drive with a cache less than 1375KiBMake use of C2 pointers : NORead offset correction : 667Max retry count : 100Gap status : Analyzed, Appended
TOC of the extracted CD Track | Start | Length | Start sector | End sector --------------------------------------------------------- 1 | 00:00:00 | 04:16:62 | 0 | 19261 2 | 04:16:62 | 04:16:00 | 19262 | 38461 3 | 08:32:62 | 06:23:73 | 38462 | 67259 4 | 14:56:60 | 05:54:12 | 67260 | 93821 5 | 20:50:72 | 06:24:23 | 93822 | 122644 6 | 27:15:20 | 06:08:05 | 122645 | 150249 7 | 33:23:25 | 04:16:40 | 150250 | 169489 8 | 37:39:65 | 03:53:15 | 169490 | 186979 9 | 41:33:05 | 10:35:72 | 186980 | 234676 10 | 54:41:02 | 13:59:43 | 246077 | 309044
AccurateRip Summary (DiscID: 0011a860-008669a7-8510180a) Track 01 : OK (v2, confidence 4/4) Track 02 : OK (v2, confidence 4/4) Track 03 : OK (v2, confidence 4/4) Track 04 : OK (v2, confidence 4/4) Track 05 : OK (v2, confidence 4/4) Track 06 : OK (v2, confidence 4/4) Track 07 : OK (v2, confidence 4/4) Track 08 : OK (v2, confidence 4/4) Track 09 : OK (v2, confidence 3/3) ->All tracks accurately ripped.
All Tracks Album gain : -7.62 dB Peak : 0.999939 Statistics Read error : 0 Jitter error (maybe fixed) : 0 Retry sector count : 0 Damaged sector count : 0
Track 01 Filename : /Users/denissorokin/Music/Rembo Music/Craig David - Fill Me In (US Single) [2001]/01 Craig David - Fill Me In.flac Pre-gap length : 00:02:00
Track gain : -8.25 dB Peak : 0.999939 CRC32 hash (test run) : 39D87820 CRC32 hash : 39D87820 CRC32 hash (skip zero) : 0AF64BA8 AccurateRip v1 signature : A7ACD45A AccurateRip v2 signature : A67F5F54 ->Accurately ripped (v2, confidence 4/4) Statistics Read error : 0 Jitter error (maybe fixed) : 0 Retry sector count : 0 Damaged sector count : 0
Track 02 Filename : /Users/denissorokin/Music/Rembo Music/Craig David - Fill Me In (US Single) [2001]/02 Craig David - Fill Me In (Full Crew Mix).flac Pre-gap length : 00:02:55
Track gain : -7.64 dB Peak : 0.999939 CRC32 hash (test run) : 6AE71342 CRC32 hash : 6AE71342 CRC32 hash (skip zero) : 7F0F1E90 AccurateRip v1 signature : 8D7DAEA9 AccurateRip v2 signature : 3645EB65 ->Accurately ripped (v2, confidence 4/4) Statistics Read error : 0 Jitter error (maybe fixed) : 0 Retry sector count : 0 Damaged sector count : 0
Track 03 Filename : /Users/denissorokin/Music/Rembo Music/Craig David - Fill Me In (US Single) [2001]/03 Craig David - Fill Me In (Blacksmith Mix).flac Pre-gap length : 00:02:60
Track gain : -6.84 dB Peak : 0.999939 CRC32 hash (test run) : 5EA55573 CRC32 hash : 5EA55573 CRC32 hash (skip zero) : 43DF32F7 AccurateRip v1 signature : 8529C850 AccurateRip v2 signature : AC92D237 ->Accurately ripped (v2, confidence 4/4) Statistics Read error : 0 Jitter error (maybe fixed) : 0 Retry sector count : 0 Damaged sector count : 0
Track 04 Filename : /Users/denissorokin/Music/Rembo Music/Craig David - Fill Me In (US Single) [2001]/04 Craig David - Fill Me In (Sunship Remix).flac Pre-gap length : 00:02:55
Track gain : -5.83 dB Peak : 0.999939 CRC32 hash (test run) : BB565D81 CRC32 hash : BB565D81 CRC32 hash (skip zero) : 0D153B7D AccurateRip v1 signature : F1719DC4 AccurateRip v2 signature : EA8C493A ->Accurately ripped (v2, confidence 4/4) Statistics Read error : 0 Jitter error (maybe fixed) : 0 Retry sector count : 0 Damaged sector count : 0
Track 05 Filename : /Users/denissorokin/Music/Rembo Music/Craig David - Fill Me In (US Single) [2001]/05 Craig David - Fill Me In (Artful Dodger Remix).flac Pre-gap length : 00:02:50
Track gain : -6.59 dB Peak : 0.999939 CRC32 hash (test run) : 77825ADE CRC32 hash : 77825ADE CRC32 hash (skip zero) : 6F1EB59C AccurateRip v1 signature : B5A663AA AccurateRip v2 signature : 70C56D7F ->Accurately ripped (v2, confidence 4/4) Statistics Read error : 0 Jitter error (maybe fixed) : 0 Retry sector count : 0 Damaged sector count : 0
Track 06 Filename : /Users/denissorokin/Music/Rembo Music/Craig David - Fill Me In (US Single) [2001]/06 Craig David - Fill Me In (Artful Dodger Bootleg Remix).flac Pre-gap length : 00:02:58
Track gain : -6.20 dB Peak : 0.999939 CRC32 hash (test run) : D92ABD97 CRC32 hash : D92ABD97 CRC32 hash (skip zero) : 80FE1157 AccurateRip v1 signature : 44D4460D AccurateRip v2 signature : 474766C1 ->Accurately ripped (v2, confidence 4/4) Statistics Read error : 0 Jitter error (maybe fixed) : 0 Retry sector count : 0 Damaged sector count : 0
Track 07 Filename : /Users/denissorokin/Music/Rembo Music/Craig David - Fill Me In (US Single) [2001]/07 Craig David - Fill Me In [Album Instrumental].flac Pre-gap length : 00:02:55
Track gain : -5.75 dB Peak : 0.999939 CRC32 hash (test run) : 213F0733 CRC32 hash : 213F0733 CRC32 hash (skip zero) : 91AC3B98 AccurateRip v1 signature : EBD608C3 AccurateRip v2 signature : 9F8C2F9E ->Accurately ripped (v2, confidence 4/4) Statistics Read error : 0 Jitter error (maybe fixed) : 0 Retry sector count : 0 Damaged sector count : 0
Track 08 Filename : /Users/denissorokin/Music/Rembo Music/Craig David - Fill Me In (US Single) [2001]/08 Craig David - Fill Me In [Radio Edit].flac Pre-gap length : 00:02:53
Track gain : -8.31 dB Peak : 0.999939 CRC32 hash (test run) : 50977B11 CRC32 hash : 50977B11 CRC32 hash (skip zero) : 03BCE5F1 AccurateRip v1 signature : 48D07D04 AccurateRip v2 signature : 0312EA5C ->Accurately ripped (v2, confidence 4/4) Statistics Read error : 0 Jitter error (maybe fixed) : 0 Retry sector count : 0 Damaged sector count : 0
Track 09 Filename : /Users/denissorokin/Music/Rembo Music/Craig David - Fill Me In (US Single) [2001]/09 Craig David - Fill Me In [Live!].flac Pre-gap length : 00:03:00
Track gain : -8.26 dB Peak : 0.995575 CRC32 hash (test run) : A85F019C CRC32 hash : A85F019C CRC32 hash (skip zero) : 5C3A8DD1 AccurateRip v1 signature : 414A6E66 AccurateRip v2 signature : C4A73085 ->Accurately ripped (v2, confidence 3/3) Statistics Read error : 0 Jitter error (maybe fixed) : 0 Retry sector count : 0 Damaged sector count : 0
No errors occurred
End of status report
-----BEGIN XLD SIGNATURE-----TRAHR7jPcrp2WCZiXF4nG58_kvcwX7x6tHOA3NdvawYt6pVStAqJM.GuGbJMf4qFCtczhurEYMYsXQ3OfNbAl1qVcKQJzrDShTv2zca-----END XLD SIGNATURE-----

Содержание индексной карты (.CUE)

TITLE "Fill Me In [Single]"PERFORMER "Craig David"CATALOG 0075678810022REM GENRE "R&B"REM DISCID 8510180AFILE "01 Craig David - Fill Me In.wav" WAVE  TRACK 01 AUDIO    TITLE "Fill Me In"    SONGWRITER "Craig David/Mark Hill"    ISRC GBAWV9902038    REM DATE 2000    INDEX 01 00:00:00  TRACK 02 AUDIO    TITLE "Fill Me In (Full Crew Mix)"    SONGWRITER "Craig David/Mark Hill"    ISRC GBAWV0002390    REM DATE 2000    INDEX 00 04:14:07FILE "02 Craig David - Fill Me In (Full Crew Mix).wav" WAVE    INDEX 01 00:00:00  TRACK 03 AUDIO    TITLE "Fill Me In (Blacksmith Mix)"    SONGWRITER "Craig David/Mark Hill"    ISRC GBAWV0002093    REM DATE 2001    INDEX 00 04:13:15FILE "03 Craig David - Fill Me In (Blacksmith Mix).wav" WAVE    INDEX 01 00:00:00  TRACK 04 AUDIO    TITLE "Fill Me In (Sunship Remix)"    SONGWRITER "Craig David/Mark Hill"    ISRC GBAWV0002034    REM DATE 2000    INDEX 00 06:21:18FILE "04 Craig David - Fill Me In (Sunship Remix).wav" WAVE    INDEX 01 00:00:00  TRACK 05 AUDIO    TITLE "Fill Me In (Artful Dodger Remix)"    SONGWRITER "Craig David/Mark Hill"    ISRC GBAWV0002091    REM DATE 2000    INDEX 00 05:51:37FILE "05 Craig David - Fill Me In (Artful Dodger Remix).wav" WAVE    INDEX 01 00:00:00  TRACK 06 AUDIO    TITLE "Fill Me In (Artful Dodger Bootleg Remix)"    SONGWRITER "Craig David/Mark Hill"    ISRC GBAWV0002088    REM DATE 2000    INDEX 00 06:21:40FILE "06 Craig David - Fill Me In (Artful Dodger Bootleg Remix).wav" WAVE    INDEX 01 00:00:00  TRACK 07 AUDIO    TITLE "Fill Me In [Album Instrumental]"    SONGWRITER "Craig David/Mark Hill"    ISRC GBAWV0002393    REM DATE 2001    INDEX 00 06:05:25FILE "07 Craig David - Fill Me In [Album Instrumental].wav" WAVE    INDEX 01 00:00:00  TRACK 08 AUDIO    TITLE "Fill Me In [Radio Edit]"    SONGWRITER "Craig David/Mark Hill"    ISRC GBAWV0002039    REM DATE 2000    INDEX 00 04:13:62FILE "08 Craig David - Fill Me In [Radio Edit].wav" WAVE    INDEX 01 00:00:00  TRACK 09 AUDIO    TITLE "Fill Me In [Live!]"    SONGWRITER "Craig David/Mark Hill"    ISRC GBAWV0102480    REM DATE 2001    INDEX 00 03:50:15FILE "09 Craig David - Fill Me In [Live!].wav" WAVE    INDEX 01 00:00:00

Чтобы скачать этот контент, Вам необходимо:
1. Скачать и установить торрент-клиент [клик для Windows], (для мобильного найдите на Play Маркет).
2. Кликнуть по [Скачать]


Внимание.
Если проверка ВЫ НЕ РОБОТ - не работает, значит Вы используете устаревший браузер.
Установите актуальный браузер и повторно кликните по [Скачать]

Запрещён Яндекс браузер. Загрузка файлов им является ошибочной.
Безопасность: торрент-клиент разрешён АВ Касперского.

[mail.asmlocator.ru].t732255.torrent 
Торрент: Зарегистрирован [ 2020-05-08 13:20 ] · 92C98AE3837EAC691DC573F6A5CD0E6D1D788F00

Скачать .torrent

Скачать

16 KB

Статус: проверено
Скачан: 0 раз
Размер: 373 MB
terms.php
[Профиль] [ЛС]
Показать сообщения:    
Ответить на тему

Текущее время: 12-Июл 18:08

Часовой пояс: UTC ± 0



Вы не можете начинать темы
Вы не можете отвечать на сообщения
Вы не можете редактировать свои сообщения
Вы не можете удалять свои сообщения
Вы не можете голосовать в опросах
Вы не можете прикреплять файлы к сообщениям
Вы можете скачивать файлы
Верим фактам, а не вранью Путина! Факт, что Правительство ведёт Россию к истреблению.
Так как численность населения падает, даже не смотря на приток эмигрантов!
Русская нация вымирает и вырождается, смешиваясь с эмигрантами!
Факт, что военных и граждан предприятий заставляют голосовать за партию Единая Россия и Путина
ПОД СТРАХОМ УВОЛЬНЕНИЯ!
Нам не нужно Правительство, блокирующее личную жизнь, интернет, нарушающее сохранность данных.
Все эти действия финансируются за счёт народа!