Одесса (Валерий Тодоровский) [2018, драма, WEB-DLRip]

Ответить на тему
Статистика раздачи
Размер:  2.18 GB   |    Зарегистрирован:  3 месяца   |    Скачан:  2 раза

Полного источника не было: 1 час 4 минуты

 
   
 
 
Автор Сообщение

star21 ®

Пол: Женский

Стаж: 4 года 8 месяцев

Сообщений: 551945

Откуда: Екатеринбург

Создавать темы 11-Апр-2020 03:30

[Цитировать]

Одесса
Страна: Россия
Жанр: драма
Год выпуска: 2018
Продолжительность: 02:09:46
Субтитры: нет-Режиссер:
Валерий Тодоровский-В ролях:
Ирина Розанова, Евгений Цыганов, Леонид Ярмольник, Ксения Раппопорт, Евгения Брик (Хиривская), Степан Середа, Станислав Эвентов, Вероника Устимова, Сергей Сосновский, Сергей Муравьёв-Описание:
Одесса, август 1970 года. Самая жара. Город забит курортниками. В гости к тестю с тёщей, Григорию Иосифовичу и Раисе Ировне Давыдовым, прилетают из Москвы их зять Борис, журналист-международник, и его восьмилетний сын Валерик. Но именно в день их прилета в Одессе объявляют холерный карантин, город закрывают. Так приехавший на пару дней московский зять погружается в мир, измененный серьезной опасностью. Вскроются семейные тайны, произойдут невероятные события и случится большая запретная любовь.- -Качество видео: WEB-DLRip
Формат видео: AVI
Видео: 720x304 (2.37:1), 24.000 fps, XviD build 73 ~2014 kbps avg, 0.38 bit/pixel
Аудио: 48 kHz, AC3 Dolby Digital, 3/2 (L,C,R,l,r) + LFE ch, ~384 kbps - iTunes-

Сэмпл-

MediaInfo

Формат                                   : AVI
Формат/Информация                        : Audio Video Interleave
Профиль формата                          : OpenDML
Размер файла                             : 2,18 Гбайт
Продолжительность                        : 2 ч. 9 м.
Общий поток                              : 2405 Кбит/сек
Название фильма                          : Одесса_2018_WEB-DLRip_[2.18]
Программа кодирования                    : VirtualDubMod 1.5.10.3 | www.virtualdub-fr.org || (build 2550/release)
Авторское право                          : порошков
Видео
Идентификатор                            : 0
Формат                                   : MPEG-4 Visual
Профиль формата                          : Advanced Simple@L5
Настройки формата                        : BVOP1 / Custom Matrix
Параметр BVOP формата                    : 1
Параметр QPel формата                    : Нет
Параметр GMC формата                     : Без точки перехода
Параметр матрицы формата                 : Выборочная
Идентификатор кодека                     : XVID
Идентификатор кодека/Подсказка           : XviD
Продолжительность                        : 2 ч. 9 м.
Битрейт                                  : 2010 Кбит/сек
Ширина                                   : 720 пикселей
Высота                                   : 304 пикселя
Соотношение сторон                       : 2,35:1
Частота кадров                           : 24,000 кадра/сек
Цветовое пространство                    : YUV
Субдискретизация насыщенности            : 4:2:0
Битовая глубина                          : 8 бит
Тип развёртки                            : Прогрессивная
Метод сжатия                             : С потерями
Бит/(Пиксели*Кадры)                      : 0.383
Размер потока                            : 1,82 Гбайт (84%)
Библиотека кодирования                   : XviD 73
Аудио
Идентификатор                            : 1
Формат                                   : AC-3
Формат/Информация                        : Audio Coding 3
Коммерческое название                    : Dolby Digital
Идентификатор кодека                     : 2000
Продолжительность                        : 2 ч. 9 м.
Вид битрейта                             : Постоянный
Битрейт                                  : 384 Кбит/сек
Каналы                                   : 6 каналов
ChannelLayout                            : L R C LFE Ls Rs
Частота                                  : 48,0 КГц
Частота кадров                           : 31,250 кадров/сек (1536 SPF)
Метод сжатия                             : С потерями
Размер потока                            : 356 Мбайт (16%)
Выравнивание                             : Разделение по промежуткам
Продолжительность промежутка             : 42  мс. (1,00 видеокадр)
Время предзагрузки промежутка            : 500  мс.
ServiceKind/String                       : Complete Main

Скриншоты


Чтобы скачать этот контент, Вам необходимо:
1. Скачать и установить торрент-клиент [клик для Windows], (для мобильного найдите на Play Маркет).
2. Кликнуть по [Скачать]


Внимание.
Если проверка ВЫ НЕ РОБОТ - не работает, значит Вы используете устаревший браузер.
Установите актуальный браузер и повторно кликните по [Скачать]

Запрещён Яндекс браузер. Загрузка файлов им является ошибочной.
Безопасность: торрент-клиент разрешён АВ Касперского.

[mail.asmlocator.ru].t724844.torrent 
Торрент: Зарегистрирован [ 2020-04-11 03:30 ] · C386FCE98EE3A8D768FE6D02FCBBDD3017941A72

Скачать .torrent

Скачать

11 KB

Статус: проверено
Скачан: 2 раз
Размер: 2.18 GB
terms.php
[Профиль] [ЛС]

totrov

Пол: Мужской

Стаж: 1 год 7 месяцев

Сообщений: 6

Откуда: Москва

Создавать темы 13-Май-2020 12:07 (спустя 1 месяц 2 дня)

[Цитировать]

спасибо
[Профиль] [ЛС]
Показать сообщения:    
Ответить на тему

Текущее время: 11-Июл 04:49

Часовой пояс: UTC ± 0



Вы не можете начинать темы
Вы не можете отвечать на сообщения
Вы не можете редактировать свои сообщения
Вы не можете удалять свои сообщения
Вы не можете голосовать в опросах
Вы не можете прикреплять файлы к сообщениям
Вы можете скачивать файлы
Верим фактам, а не вранью Путина! Факт, что Правительство ведёт Россию к истреблению.
Так как численность населения падает, даже не смотря на приток эмигрантов!
Русская нация вымирает и вырождается, смешиваясь с эмигрантами!
Факт, что военных и граждан предприятий заставляют голосовать за партию Единая Россия и Путина
ПОД СТРАХОМ УВОЛЬНЕНИЯ!
Нам не нужно Правительство, блокирующее личную жизнь, интернет, нарушающее сохранность данных.
Все эти действия финансируются за счёт народа!