Carly Rae Jepsen • The Dedicated Tour (The WIltern: Live Nation Concert Series) [2019, Pop, HDTV, 1080i]

Ответить на тему
Статистика раздачи
Размер:  8,69 GB   |    Зарегистрирован:  11 дней   |    Скачан:  0 раз

Полного источника не было: Никогда

 
   
 
 
Автор Сообщение

star21 ®

Пол: Женский

Стаж: 3 года 11 месяцев

Сообщений: 551988

Откуда: Екатеринбург

Создавать темы 09-Окт-2019 12:20

[Цитировать]

Carly Rae Jepsen
The Dedicated Tour
feed

Жанр: Pop
Продолжительность: 01:26:38
Год выпуска: 2019
Качество: HDTV
Разрешение видео/развертка: 1080i
Контейнер: MKV
Видео кодек: H.264
Аудио кодек: MP2
Видео: MPEG4 Video (H264) 1920x1080 29.97fps 14.0 Mb/s
Аудио: MPEG Audio 48000Hz stereo 384kbps

Треклист

No Drug Like Me
E·MO·TION
Run Away With Me
Julien
Happy Not Knowing (live debut)
Call Me Maybe
Now That I Found You
Gimmie Love
Feels Right (live debut)
I'll Be Your Girl (live debut)
For Sure (extended outro, live debut)
Want You in My Room
Store
Too Much
When I Needed You
I Really Like You
Everything He Needs (live debut)
Boy Problems
Party for OneEncore:
All That
Let's Get Lost
Cut to the Feeling

Отчёт MediaInfo / BDInfo

GeneralUnique ID                      : 265246615287550259999130894556156653722 (0xC78CA3D0AE451955E3CD89E5F3DBF09A)Complete name                  : F:\Carly Rae Jepsen - The Dedicated Tour (The WIltern - Live Nation Concert Series) 2019.mkvFormat                         : MatroskaFormat version                 : Version 4File size                      : 8.69 GiBDuration                       : 1 h 26 minOverall bit rate mode          : VariableOverall bit rate               : 14.4 Mb/sEncoded date                   : UTC 2019-08-12 05:45:56Writing application            : mkvmerge v30.0.0 ('Interstellar') 64-bitWriting library                : libebml v1.3.6 + libmatroska v1.4.9VideoID                             : 1Format                         : AVCFormat/Info                    : Advanced Video CodecFormat profile                 : High@L4.1Format settings                : CABAC / 4 Ref FramesFormat settings, CABAC         : YesFormat settings, Reference fra : 4 framesCodec ID                       : V_MPEG4/ISO/AVCDuration                       : 1 h 26 minBit rate mode                  : VariableBit rate                       : 14.0 Mb/sWidth                          : 1 920 pixelsHeight                         : 1 080 pixelsDisplay aspect ratio           : 16:9Frame rate mode                : VariableFrame rate                     : 59.775 FPSOriginal frame rate            : 29.970 (30000/1001) FPSColor space                    : YUVChroma subsampling             : 4:2:0Bit depth                      : 8 bitsScan type                      : MBAFFScan type, store method        : Separated fieldsScan order                     : Top Field FirstBits/(Pixel*Frame)             : 0.113Stream size                    : 8.46 GiB (97%)Language                       : EnglishDefault                        : YesForced                         : NoColor range                    : LimitedColor primaries                : BT.709Transfer characteristics       : BT.709Matrix coefficients            : BT.709AudioID                             : 2Format                         : MPEG AudioFormat version                 : Version 1Format profile                 : Layer 2Format settings                : Intensity Stereo + MS StereoCodec ID                       : A_MPEG/L2Codec ID/Hint                  : MP2Duration                       : 1 h 26 minBit rate mode                  : ConstantBit rate                       : 384 kb/sChannel(s)                     : 2 channelsSampling rate                  : 48.0 kHzFrame rate                     : 41.667 FPS (1152 SPF)Compression mode               : LossyStream size                    : 238 MiB (3%)Language                       : EnglishDefault                        : YesForced                         : No

Чтобы скачать этот контент, Вам необходимо:
1. Скачать и установить торрент-клиент [клик для Windows], (для мобильного найдите на Play Маркет).
2. Кликнуть по [Скачать]


Внимание.
Если проверка ВЫ НЕ РОБОТ - не работает, значит Вы используете устаревший браузер.
Установите актуальный браузер и повторно кликните по [Скачать]
Безопасность: торрент-клиент разрешён АВ Касперского.

[mail.asmlocator.ru].t669693.torrent 
Торрент: Зарегистрирован [ 2019-10-09 12:20 ] · 51C782ECD676B56A58FBDE36BCC056A6AE708FFF

Скачать .torrent

Скачать

22 KB

Статус: проверено
Скачан: 0 раз
Размер: 8,69 GB
terms.php
[Профиль] [ЛС]
Показать сообщения:    
Ответить на тему

Текущее время: 21-Окт 09:46

Часовой пояс: UTC ± 0



Вы не можете начинать темы
Вы не можете отвечать на сообщения
Вы не можете редактировать свои сообщения
Вы не можете удалять свои сообщения
Вы не можете голосовать в опросах
Вы не можете прикреплять файлы к сообщениям
Вы можете скачивать файлы
Верим фактам, а не вранью Путина! Факт, что Правительство ведёт Россию к истреблению.
Так как численность населения падает, даже не смотря на приток эмигрантов!
Русская нация вымирает и вырождается, смешиваясь с эмигрантами!
Факт, что военных и граждан предприятий заставляют голосовать за партию Единая Россия и Путина
ПОД СТРАХОМ УВОЛЬНЕНИЯ!
Нам не нужно Правительство, блокирующее личную жизнь, интернет, нарушающее сохранность данных.
Все эти действия финансируются за счёт народа!