(Melodic Death Metal/Metalcore) [CD] Chaos Beyond - The Drawing Board - 2013, FLAC (Tracks) lossless

Ответить на тему
Статистика раздачи
Размер:  373 MB   |    Зарегистрирован:  13 дней   |    Скачан:  0 раз

Полного источника не было: Никогда

 
   
 
 
Автор Сообщение

star21 ®

Пол: Женский

Стаж: 3 года 11 месяцев

Сообщений: 551988

Откуда: Екатеринбург

Создавать темы 07-Окт-2019 22:50

[Цитировать]

Chaos Beyond - The Drawing Board Жанр: Melodic Death Metal / Metalcore
Носитель: CD
Страна: Austria
Год издания: 2013
Издатель (лейбл): Self-Produced
Аудиокодек: FLAC
Тип рипа: tracks
Битрейт аудио: lossless
Продолжительность : 00:49:23
Источник: диск друга
Сканы: нет

(2013) The Drawing Board

Tracklist:01 Refuse To Resist
02 This Is Your Chance
03 Welcome To This World
04 The Road
05 Sound Of The Clarions
06 #Oneclickaway
07 V1
08 Dream Or Reality
09 Socialies
10 Against All Odds
11 My Final Hatred
12 The Warmth Remains
13 The Contract

Доп. информация

http://www.terrasound.at/products/the-drawing-boardЗамечание : Мне очень жаль, но у меня нет CD, чтобы запустить тесты, друг купил его у лейбла и поделился им со мной.я просто хотел поделиться этим альбомом

Lossless-Audio-Checker

Lossless Audio Checker 2.0.7 logfile from Monday 07 October 2019 17:24:33 AMFile:   O:\Converted\Chaos Beyond\Chaos Beyond (2013) The Drawing Board FLAC]\03 Welcome To This World.flacResult: CleanFile:   O:\Converted\Chaos Beyond\Chaos Beyond (2013) The Drawing Board FLAC]\04 The Road.flacResult: CleanFile:   O:\Converted\Chaos Beyond\Chaos Beyond (2013) The Drawing Board FLAC]\05 Sound Of The Clarions.flacResult: CleanFile:   O:\Converted\Chaos Beyond\Chaos Beyond (2013) The Drawing Board FLAC]\06 One Click Away.flacResult: CleanFile:   O:\Converted\Chaos Beyond\Chaos Beyond (2013) The Drawing Board FLAC]\07 V1.flacResult: CleanFile:   O:\Converted\Chaos Beyond\Chaos Beyond (2013) The Drawing Board FLAC]\08 Dream Or Reality.flacResult: CleanFile:   O:\Converted\Chaos Beyond\Chaos Beyond (2013) The Drawing Board FLAC]\09 Socialies.flacResult: CleanFile:   O:\Converted\Chaos Beyond\Chaos Beyond (2013) The Drawing Board FLAC]\10 Against All Odds.flacResult: CleanFile:   O:\Converted\Chaos Beyond\Chaos Beyond (2013) The Drawing Board FLAC]\11 My Final Hatred.flacResult: CleanFile:   O:\Converted\Chaos Beyond\Chaos Beyond (2013) The Drawing Board FLAC]\12 The Warmth Remains.flacResult: CleanFile:   O:\Converted\Chaos Beyond\Chaos Beyond (2013) The Drawing Board FLAC]\13 The Contract.flacResult: CleanFile:   O:\Converted\Chaos Beyond\Chaos Beyond (2013) The Drawing Board FLAC]\01 Refuse To Resist.flacResult: CleanFile:   O:\Converted\Chaos Beyond\Chaos Beyond (2013) The Drawing Board FLAC]\02 This Is Your Chance.flacResult: Clean

Frequency Spectrum Screenshot




Dinamyc Range

foobar2000 1.4.3 / Dynamic Range Meter 1.1.1log date: 2019-10-07 06:51:25--------------------------------------------------------------------------------Analyzed: Chaos Beyond / The Drawing Board--------------------------------------------------------------------------------DR         Peak         RMS     Duration Track--------------------------------------------------------------------------------DR6        0.00 dB    -7.08 dB      4:35 01-Refuse To ResistDR6        0.00 dB    -6.62 dB      3:10 02-This Is Your ChanceDR6        0.00 dB    -7.24 dB      4:18 03-Welcome To This WorldDR6        0.00 dB    -6.63 dB      4:01 04-The RoadDR6        0.00 dB    -7.36 dB      3:50 05-Sound Of The ClarionsDR6        0.00 dB    -7.57 dB      3:38 06-One Click AwayDR9        0.00 dB   -11.30 dB      1:51 07-V1DR7       -0.16 dB    -7.97 dB      4:55 08-Dream Or RealityDR5        0.00 dB    -6.80 dB      3:36 09-SocialiesDR6        0.00 dB    -7.12 dB      3:43 10-Against All OddsDR6        0.00 dB    -7.50 dB      5:09 11-My Final HatredDR6        0.00 dB    -7.47 dB      3:53 12-The Warmth RemainsDR6        0.00 dB    -7.47 dB      2:45 13-The Contract--------------------------------------------------------------------------------Number of tracks:  13Official DR value: DR6Samplerate:        44100 HzChannels:          2Bits per sample:   16Bitrate:           1008 kbpsCodec:             FLAC================================================================================
enjoy

Чтобы скачать этот контент, Вам необходимо:
1. Скачать и установить торрент-клиент [клик для Windows], (для мобильного найдите на Play Маркет).
2. Кликнуть по [Скачать]


Внимание.
Если проверка ВЫ НЕ РОБОТ - не работает, значит Вы используете устаревший браузер.
Установите актуальный браузер и повторно кликните по [Скачать]
Безопасность: торрент-клиент разрешён АВ Касперского.

[mail.asmlocator.ru].t669365.torrent 
Торрент: Зарегистрирован [ 2019-10-07 22:50 ] · 5551C8878331BFB4F03790DF0813983CBD26A4E8

Скачать .torrent

Скачать

30 KB

Статус: проверено
Скачан: 0 раз
Размер: 373 MB
terms.php
[Профиль] [ЛС]
Показать сообщения:    
Ответить на тему

Текущее время: 21-Окт 09:37

Часовой пояс: UTC ± 0



Вы не можете начинать темы
Вы не можете отвечать на сообщения
Вы не можете редактировать свои сообщения
Вы не можете удалять свои сообщения
Вы не можете голосовать в опросах
Вы не можете прикреплять файлы к сообщениям
Вы можете скачивать файлы
Верим фактам, а не вранью Путина! Факт, что Правительство ведёт Россию к истреблению.
Так как численность населения падает, даже не смотря на приток эмигрантов!
Русская нация вымирает и вырождается, смешиваясь с эмигрантами!
Факт, что военных и граждан предприятий заставляют голосовать за партию Единая Россия и Путина
ПОД СТРАХОМ УВОЛЬНЕНИЯ!
Нам не нужно Правительство, блокирующее личную жизнь, интернет, нарушающее сохранность данных.
Все эти действия финансируются за счёт народа!