Марио / Mario / Mario AI no Yukue (Маекава Томохиро / Maekawa Tomohiro) [2018, Япония, фантастика, драма, HDTV 1080i] Original Jpn + Rus Sub (ФСГ Birdman Fansubs)

Ответить на тему
Статистика раздачи
Размер:  2.39 GB   |    Зарегистрирован:  3 месяца 28 дней   |    Скачан:  0 раз

Полного источника не было: Никогда

 
   
 
 
Автор Сообщение

star21 ®

Пол: Женский

Стаж: 4 года 2 месяца

Сообщений: 551946

Откуда: Екатеринбург

Создавать темы 23-Сен-2019 00:25

[Цитировать]

Марио / Mario / Mario AI no Yukue Страна: Япония
Студия: NHK
Жанр: фантастика, драма
Год выпуска: 2018
Продолжительность: 01:29:00Перевод: Субтитры ФСГ Birdman Fansubs
Субтитры: русские
Оригинальная аудиодорожка: японскийРежиссер: Маекава Томохиро / Maekawa TomohiroВ ролях: Китамура Юкия, Курасина Кана, Нисидзима Хидэтоси, Танака Тэцуси, Нисида Наоми, Фукудзаки НаютаОписание: В недалёком будущем искусственный интеллект ещё не получил повсеместного распространения, но уже стал реальностью. Одна из технологий ИИ - нейросеть по имени Марио, созданная по заказу японской полиции. Но исследователь Такиэда Сатору мечтает не об ИИ, а хочет создать человека. Ему выпадает такой шанс - пересадить ИИ в тело человека. Так возникает эдакий японский "Робокоп", но в отличие от американского киборга-полицейского, Марио размышляет о смысле жизни и находит себе друга.Сэмпл: https://yadi.sk/i/NQEeqJuU0q1GfAТип релиза: HDTV 1080i
Контейнер: MKVВидео: AVC, 1920х1080, 29,970 fps, 3661 Kbps
Аудио: AAC, Japanese, 2 ch, 192 Kbps, 48,0 КГц
Формат субтитров: softsub (SSA/ASS)

MediaInfo

Формат                                   : MatroskaВерсия формата                           : Version 4Размер файла                             : 2,39 ГбайтПродолжительность                        : 1 ч. 29 м.Общий поток                              : 3852 Кбит/секДата кодирования                         : UTC 2019-09-21 07:52:04Программа кодирования                    : mkvmerge v25.0.0 ('Prog Noir') 64-bitБиблиотека кодирования                   : libebml v1.3.6 + libmatroska v1.4.9ВидеоИдентификатор                            : 1Формат                                   : AVCФормат/Информация                        : Advanced Video CodecПрофиль формата                          : High@L4Настройки формата                        : CABAC / 4 Ref FramesПараметр CABAC формата                   : ДаПараметр RefFrames формата               : 4 кадраИдентификатор кодека                     : V_MPEG4/ISO/AVCПродолжительность                        : 1 ч. 28 м.Битрейт                                  : 3661 Кбит/секШирина                                   : 1920 пикселейВысота                                   : 1080 пикселейСоотношение сторон                       : 16:9Режим частоты кадров                     : ПостоянныйЧастота кадров                           : 29,970 (30000/1001) кадров/секЦветовое пространство                    : YUVСубдискретизация насыщенности            : 4:2:0Битовая глубина                          : 8 битТип развёртки                            : MBAFFМетод сохранения типа развёртки          : Чередующиеся поляПорядок развёртки                        : Верхнее поле первоеБит/(Пиксели*Кадры)                      : 0.059Размер потока                            : 2,28 Гбайт (95%)Библиотека кодирования                   : x264 core 148Настройки программы                      : cabac=1 / ref=3 / deblock=1:0:0 / analyse=0x3:0x113 / me=hex / subme=7 / psy=1 / psy_rd=1.00:0.00 / mixed_ref=1 / me_range=16 / chroma_me=1 / trellis=1 / 8x8dct=1 / cqm=0 / deadzone=21,11 / fast_pskip=1 / chroma_qp_offset=-2 / threads=6 / lookahead_threads=1 / sliced_threads=0 / nr=0 / decimate=1 / interlaced=tff / bluray_compat=0 / constrained_intra=0 / bframes=3 / b_pyramid=2 / b_adapt=1 / b_bias=0 / direct=1 / weightb=1 / open_gop=0 / weightp=0 / keyint=250 / keyint_min=25 / scenecut=40 / intra_refresh=0 / rc_lookahead=40 / rc=crf / mbtree=1 / crf=23.0 / qcomp=0.60 / qpmin=0 / qpmax=69 / qpstep=4 / ip_ratio=1.40 / aq=1:1.00Язык                                     : JapaneseDefault                                  : ДаForced                                   : НетАудиоИдентификатор                            : 2Формат                                   : AAC LCФормат/Информация                        : Advanced Audio Codec Low ComplexityИдентификатор кодека                     : A_AAC-2Продолжительность                        : 1 ч. 28 м.Битрейт                                  : 192 Кбит/секКаналы                                   : 2 каналаChannel layout                           : L RЧастота                                  : 48,0 КГцЧастота кадров                           : 46,875 кадров/сек (1024 SPF)Метод сжатия                             : С потерямиРазмер потока                            : 120 Мбайт (5%)Язык                                     : JapaneseDefault                                  : ДаForced                                   : НетТекстИдентификатор                            : 3Формат                                   : ASSИдентификатор кодека                     : S_TEXT/ASSИдентификатор кодека/Информация          : Advanced Sub Station AlphaПродолжительность                        : 1 ч. 28 м.Битрейт                                  : 107 бит/секElementCount                             : 900Метод сжатия                             : Без потерьРазмер потока                            : 69,4 Кбайт (0%)Язык                                     : RussianDefault                                  : ДаForced                                   : Нет

Скриншоты

Чтобы скачать этот контент, Вам необходимо:
1. Скачать и установить торрент-клиент [клик для Windows], (для мобильного найдите на Play Маркет).
2. Кликнуть по [Скачать]


Внимание.
Если проверка ВЫ НЕ РОБОТ - не работает, значит Вы используете устаревший браузер.
Установите актуальный браузер и повторно кликните по [Скачать]
Безопасность: торрент-клиент разрешён АВ Касперского.

[mail.asmlocator.ru].t665739.torrent 
Торрент: Зарегистрирован [ 2019-09-23 00:25 ] · 81190DD9E8223F703E51E4313927F88560D5AB00

Скачать .torrent

Скачать

12 KB

Статус: проверено
Скачан: 0 раз
Размер: 2.39 GB
terms.php
[Профиль] [ЛС]
Показать сообщения:    
Ответить на тему

Текущее время: 22-Янв 00:08

Часовой пояс: UTC ± 0



Вы не можете начинать темы
Вы не можете отвечать на сообщения
Вы не можете редактировать свои сообщения
Вы не можете удалять свои сообщения
Вы не можете голосовать в опросах
Вы не можете прикреплять файлы к сообщениям
Вы можете скачивать файлы
Верим фактам, а не вранью Путина! Факт, что Правительство ведёт Россию к истреблению.
Так как численность населения падает, даже не смотря на приток эмигрантов!
Русская нация вымирает и вырождается, смешиваясь с эмигрантами!
Факт, что военных и граждан предприятий заставляют голосовать за партию Единая Россия и Путина
ПОД СТРАХОМ УВОЛЬНЕНИЯ!
Нам не нужно Правительство, блокирующее личную жизнь, интернет, нарушающее сохранность данных.
Все эти действия финансируются за счёт народа!