Совершенно секретно / The Top Secret Murder in Mind / Himitsu: The Top Secret (Кэиси Отомо / Keishi Otomo) [2016, Япония, фантастика, триллер, детектив, BDRip 1080p] Original Jpn + Sub Rus (ФСБ Birdman) + Eng Sub + Zho Sub

Ответить на тему
Статистика раздачи
Размер:  15.11 GB   |    Зарегистрирован:  4 месяца   |    Скачан:  0 раз

Полного источника не было: Никогда

 
   
 
 
Автор Сообщение

star21 ®

Пол: Женский

Стаж: 4 года 2 месяца

Сообщений: 551946

Откуда: Екатеринбург

Создавать темы 21-Сен-2019 04:25

[Цитировать]

Совершенно секретно / The Top Secret Murder in Mind / Himitsu: The Top Secret Страна: Япония
Жанр: фантастика, триллер, детектив
Год выпуска: 2016
Продолжительность: 02:29:08Перевод: Субтитры ФСБ Birdman
Субтитры: русские, английские, китайские
Оригинальная аудиодорожка: японскийРежиссер: Кэиси Отомо / Keishi OtomoВ ролях: Тома Икута, Масаки Окада, Тиаки Курияма, Нао Омори, Рири Фрэнки, Чарльз Гловер, Юсукэ Хираяма, Кодзи Киккава, Харука Кинами, Тори МацудзакаОписание: Недалёкое будущее. В ответ на растущее число нераскрытых преступлений в полиции создан специальный 9-й Отдел во главе с Цуёси Маки, проводящий расследования с помощью технологии MRI, которая позволяет получить полный доступ ко всем воспоминаниям человека, даже после его смерти. История начинается с приходом в отдел новичка Икко Аоки.Доп. информация: IMDb: 5.60 (194)Сэмпл: https://yadi.sk/i/ETuNL2L0raZxHgТип релиза: BDRip 1080p
Контейнер: MKVВидео: x264, 1920х804, 23.976 fps, 13000 Kbps
Аудио: DTS, Japanese, 6 ch , 1509 Kbps, 48,0 КГц, 24 бит
Формат субтитров: softsub (SSA/ASS)

MediaInfo

Формат                                   : MatroskaВерсия формата                           : Version 4Размер файла                             : 15,1 ГбайтПродолжительность                        : 2 ч. 29 м.Общий поток                              : 14,5 Мбит/секДата кодирования                         : UTC 2019-08-03 11:38:24Программа кодирования                    : mkvmerge v25.0.0 ('Prog Noir') 64-bitБиблиотека кодирования                   : libebml v1.3.6 + libmatroska v1.4.9ВидеоИдентификатор                            : 1Формат                                   : AVCФормат/Информация                        : Advanced Video CodecПрофиль формата                          : High@L4.1Настройки формата                        : CABAC / 5 Ref FramesПараметр CABAC формата                   : ДаПараметр RefFrames формата               : 5 кадровИдентификатор кодека                     : V_MPEG4/ISO/AVCПродолжительность                        : 2 ч. 29 м.Битрейт                                  : 13,0 Мбит/секШирина                                   : 1920 пикселейВысота                                   : 804 пикселяСоотношение сторон                       : 2,40:1Режим частоты кадров                     : ПостоянныйЧастота кадров                           : 23,976 (24000/1001) кадра/секЦветовое пространство                    : YUVСубдискретизация насыщенности            : 4:2:0Битовая глубина                          : 8 битТип развёртки                            : ПрогрессивнаяБит/(Пиксели*Кадры)                      : 0.351Размер потока                            : 13,5 Гбайт (90%)Библиотека кодирования                   : x264 core 142 r2431+42 c69a006 tMod [8-bit@all X86_64]Настройки программы                      : cabac=1 / ref=5 / deblock=1:-3:-3 / analyse=0x3:0x133 / me=umh / subme=11 / psy=1 / fade_compensate=0.00 / psy_rd=1.05:0.05 / mixed_ref=1 / me_range=64 / chroma_me=1 / trellis=2 / 8x8dct=1 / cqm=0 / deadzone=21,11 / fast_pskip=0 / chroma_qp_offset=-1 / threads=12 / lookahead_threads=3 / sliced_threads=0 / nr=0 / decimate=0 / interlaced=0 / bluray_compat=0 / constrained_intra=0 / fgo=0 / bframes=10 / b_pyramid=2 / b_adapt=2 / b_bias=0 / direct=3 / weightb=1 / open_gop=0 / weightp=2 / keyint=250 / keyint_min=23 / scenecut=40 / intra_refresh=0 / rc_lookahead=120 / rc=2pass / mbtree=0 / bitrate=13000 / ratetol=1.0 / qcomp=0.70 / qpmin=0:0:0 / qpmax=69:69:69 / qpstep=4 / cplxblur=20.0 / qblur=0.5 / vbv_maxrate=50000 / vbv_bufsize=50000 / nal_hrd=none / filler=0 / ip_ratio=1.40 / pb_ratio=1.30 / aq=1:0.85 / aq-sensitivity=10.00 / aq-factor=1.00:1.00:1.00 / aq2=0 / aq3=0Язык                                     : JapaneseDefault                                  : ДаForced                                   : НетЦветовой диапазон                        : LimitedКоэффициенты матрицы                     : BT.709АудиоИдентификатор                            : 2Формат                                   : DTSФормат/Информация                        : Digital Theater SystemsИдентификатор кодека                     : A_DTSПродолжительность                        : 2 ч. 29 м.Вид битрейта                             : ПостоянныйБитрейт                                  : 1509 Кбит/секКаналы                                   : 6 каналовChannel layout                           : C L R Ls Rs LFEЧастота                                  : 48,0 КГцЧастота кадров                           : 93,750 кадра/сек (512 SPF)Битовая глубина                          : 24 битМетод сжатия                             : С потерямиРазмер потока                            : 1,57 Гбайт (10%)Язык                                     : JapaneseDefault                                  : ДаForced                                   : НетТекст #1Идентификатор                            : 3Формат                                   : ASSИдентификатор кодека                     : S_TEXT/ASSИдентификатор кодека/Информация          : Advanced Sub Station AlphaПродолжительность                        : 2 ч. 25 м.Битрейт                                  : 80 бит/секElementCount                             : 1013Метод сжатия                             : Без потерьРазмер потока                            : 85,3 Кбайт (0%)Язык                                     : RussianDefault                                  : ДаForced                                   : НетТекст #2Идентификатор                            : 4Формат                                   : UTF-8Идентификатор кодека                     : S_TEXT/UTF8Идентификатор кодека/Информация          : UTF-8 Plain TextПродолжительность                        : 2 ч. 28 м.Битрейт                                  : 26 бит/секElementCount                             : 984Размер потока                            : 28,8 Кбайт (0%)Язык                                     : EnglishDefault                                  : НетForced                                   : НетТекст #3Идентификатор                            : 5Формат                                   : UTF-8Идентификатор кодека                     : S_TEXT/UTF8Идентификатор кодека/Информация          : UTF-8 Plain TextПродолжительность                        : 2 ч. 21 м.Битрейт                                  : 25 бит/секElementCount                             : 1074Размер потока                            : 26,4 Кбайт (0%)Заголовок                                : CHSЯзык                                     : ChineseDefault                                  : НетForced                                   : НетТекст #4Идентификатор                            : 6Формат                                   : UTF-8Идентификатор кодека                     : S_TEXT/UTF8Идентификатор кодека/Информация          : UTF-8 Plain TextПродолжительность                        : 2 ч. 21 м.Битрейт                                  : 25 бит/секElementCount                             : 1074Размер потока                            : 26,4 Кбайт (0%)Заголовок                                : CHTЯзык                                     : ChineseDefault                                  : НетForced                                   : НетМеню00:00:00.000                             : en:00:00:00.00000:16:17.059                             : en:00:16:17.05900:31:37.604                             : en:00:31:37.60400:43:54.423                             : en:00:43:54.42300:51:17.866                             : en:00:51:17.86601:03:26.177                             : en:01:03:26.17701:23:29.630                             : en:01:23:29.63001:36:51.723                             : en:01:36:51.72301:47:20.768                             : en:01:47:20.76802:01:45.590                             : en:02:01:45.59002:15:46.138                             : en:02:15:46.13802:24:39.671                             : en:02:24:39.671

Скриншоты

Чтобы скачать этот контент, Вам необходимо:
1. Скачать и установить торрент-клиент [клик для Windows], (для мобильного найдите на Play Маркет).
2. Кликнуть по [Скачать]


Внимание.
Если проверка ВЫ НЕ РОБОТ - не работает, значит Вы используете устаревший браузер.
Установите актуальный браузер и повторно кликните по [Скачать]
Безопасность: торрент-клиент разрешён АВ Касперского.

[mail.asmlocator.ru].t665264.torrent 
Торрент: Зарегистрирован [ 2019-09-21 04:25 ] · 871D33BD76C91748A713BB5C32AC45E7ABD66E00

Скачать .torrent

Скачать

38 KB

Статус: проверено
Скачан: 0 раз
Размер: 15.11 GB
terms.php
[Профиль] [ЛС]
Показать сообщения:    
Ответить на тему

Текущее время: 21-Янв 23:16

Часовой пояс: UTC ± 0



Вы не можете начинать темы
Вы не можете отвечать на сообщения
Вы не можете редактировать свои сообщения
Вы не можете удалять свои сообщения
Вы не можете голосовать в опросах
Вы не можете прикреплять файлы к сообщениям
Вы можете скачивать файлы
Верим фактам, а не вранью Путина! Факт, что Правительство ведёт Россию к истреблению.
Так как численность населения падает, даже не смотря на приток эмигрантов!
Русская нация вымирает и вырождается, смешиваясь с эмигрантами!
Факт, что военных и граждан предприятий заставляют голосовать за партию Единая Россия и Путина
ПОД СТРАХОМ УВОЛЬНЕНИЯ!
Нам не нужно Правительство, блокирующее личную жизнь, интернет, нарушающее сохранность данных.
Все эти действия финансируются за счёт народа!