Серп и молот спят / The Hammer and Sickle are Sleeping / Chui Zi Lian Dao Dou Xiu Xi (Гэн Цзюнь / Geng Jun) [2013, Китай, драма, комедия, WEB-DL 1080p] VO (Franek Monk) + Original Zho + Sub Eng, Zho

Ответить на тему
Статистика раздачи
Размер:  2.75 GB   |    Зарегистрирован:  4 месяца   |    Скачан:  1 раз

Полного источника не было: 26 дней

 
   
 
 
Автор Сообщение

star21 ®

Пол: Женский

Стаж: 4 года 2 месяца

Сообщений: 551946

Откуда: Екатеринбург

Создавать темы 21-Сен-2019 04:25

[Цитировать]

Серп и молот спят / The Hammer and Sickle are Sleeping / Chui Zi Lian Dao Dou Xiu Xi Страна: Китай
Жанр: Драма, комедия
Год выпуска: 2013
Продолжительность: 00:52:15Перевод: Одноголосый закадровый (Franek Monk)
Cубтитры: Китайские (вшитые), английские (вшитые)
Оригинальная аудиодорожка: КитайскийРежиссер: Гэн Цзюнь / Geng JunВ ролях: Сюй Ган, Чжан Чжиюн, Сюэ Баохэ, Гу БэньбиньОписание: Двое бездельников из маленького городка, пытающиеся добыть денег не самым честным образом, во время новогодних праздников встречают третьего – себе подобного. Объединившись в команду, они продолжают свои деяния дальше. (Franek Monk)Доп. информация: Оригинальное название: 锤子镰刀都休息 (Chui Zi Lian Dao Dou Xiu Xi) – «Молот и серп отдыхают».
https://www.imdb.com/title/tt5769480/
https://www.kinopoisk.ru/film/1090897/Сэмпл: https://yadi.sk/i/OvREh2KvUJVXLwТип релиза: WEB-DL 1080p
Контейнер: MKVВидео: AVC, 1920x1080 (16:9), 25.000 fps, 6911 Kbps, 0.133 bit/pixel
Аудио1: Русский 48.0 KHz, 2 ch, AAC-LC, 317 kbps
Аудио2: Китайский 48.0 KHz, 2 ch, AAC-LC, 317 kbps
Формат субтитров: hardsub (неотключаемые)

MediaInfo

Unique ID: 252234796976319724038740318685734902313 (0xBDC2A7A455ECB8DD9C5C89C3B0281A29)
Complete name: The.Hammer.and.Sickle.are.Sleeping.2013.WEB-DL.1080p.mkv
Format: Matroska
Format version: Version 4 / Version 2
File size: 2.75 GiB
Duration: 52 min 14 s
Overall bit rate: 7 549 kb/s
Writing application: mkvmerge v8.9.0 ('Father Daughter') 32bit
Writing library: libebml v1.3.3 + libmatroska v1.4.4Video
ID: 1
Format: AVC
Format/Info: Advanced Video Codec
Format profile: Main@L4.2
Format settings, CABAC: No
Format settings, ReFrames: 2 frames
Codec ID: V_MPEG4/ISO/AVC
Duration: 52 min 14 s
Bit rate: 6 911 kb/s
Width: 1 920 pixels
Height: 1 080 pixels
Display aspect ratio: 16:9
Frame rate mode: Constant
Frame rate: 25.000 FPS
Color space: YUV
Chroma subsampling: 4:2:0
Bit depth: 8 bits
Scan type: Progressive
Bits/(Pixel*Frame): 0.133
Stream size: 2.52 GiB (92%)
Language: Chinese
Default: Yes
Forced: No
Color range: Limited
Color primaries: BT.709
Transfer characteristics: BT.709
Matrix coefficients: BT.709Audio #1
ID: 2
Format: AAC
Format/Info: Advanced Audio Codec
Format profile: LC
Codec ID: A_AAC
Duration: 52 min 14 s
Bit rate: 317 kb/s
Channel(s): 2 channels
Channel positions: Front: L R
Sampling rate: 48.0 kHz
Frame rate: 46.875 FPS (1024 spf)
Compression mode: Lossy
Stream size: 119 MiB (4%)
Title: AVO [Franek Monk]
Language: Russian
Default: Yes
Forced: NoAudio #2
ID: 3
Format: AAC
Format/Info: Advanced Audio Codec
Format profile: LC
Codec ID: A_AAC
Duration: 52 min 14 s
Bit rate: 317 kb/s
Channel(s): 2 channels
Channel positions: Front: L R
Sampling rate: 48.0 kHz
Frame rate: 46.875 FPS (1024 spf)
Compression mode: Lossy
Stream size: 119 MiB (4%)
Title: original
Language: Chinese
Default: No
Forced: No

Скриншот c названием фильма

Скриншоты

Чтобы скачать этот контент, Вам необходимо:
1. Скачать и установить торрент-клиент [клик для Windows], (для мобильного найдите на Play Маркет).
2. Кликнуть по [Скачать]


Внимание.
Если проверка ВЫ НЕ РОБОТ - не работает, значит Вы используете устаревший браузер.
Установите актуальный браузер и повторно кликните по [Скачать]
Безопасность: торрент-клиент разрешён АВ Касперского.

[mail.asmlocator.ru].t665253.torrent 
Торрент: Зарегистрирован [ 2019-09-21 04:25 ] · 44ADF1BFFD22EC3A9B42F1A3A6F58266C20D157C

Скачать .torrent

Скачать

14 KB

Статус: проверено
Скачан: 1 раз
Размер: 2.75 GB
terms.php
[Профиль] [ЛС]
Показать сообщения:    
Ответить на тему

Текущее время: 21-Янв 23:59

Часовой пояс: UTC ± 0



Вы не можете начинать темы
Вы не можете отвечать на сообщения
Вы не можете редактировать свои сообщения
Вы не можете удалять свои сообщения
Вы не можете голосовать в опросах
Вы не можете прикреплять файлы к сообщениям
Вы можете скачивать файлы
Верим фактам, а не вранью Путина! Факт, что Правительство ведёт Россию к истреблению.
Так как численность населения падает, даже не смотря на приток эмигрантов!
Русская нация вымирает и вырождается, смешиваясь с эмигрантами!
Факт, что военных и граждан предприятий заставляют голосовать за партию Единая Россия и Путина
ПОД СТРАХОМ УВОЛЬНЕНИЯ!
Нам не нужно Правительство, блокирующее личную жизнь, интернет, нарушающее сохранность данных.
Все эти действия финансируются за счёт народа!