Западня Венеры / Die Venusfalle (Роберт Ван Акерен / Robert van Ackeren) [1988, ФРГ, Мелодрама, эротика, LDRip] VO + Original Deu

Ответить на тему
Статистика раздачи
Размер:  1,45 GB   |    Зарегистрирован:  1 месяц 4 дня   |    Скачан:  0 раз

Полного источника не было: 1 день 13 часов

 
   
 
 
Автор Сообщение

star21 ®

Пол: Женский

Стаж: 3 года 11 месяцев

Сообщений: 551988

Откуда: Екатеринбург

Создавать темы 17-Сен-2019 01:20

[Цитировать]

Западня Венеры / Die Venusfalle Страна: ФРГ
Жанр: Мелодрама , эротика
Год выпуска: 1988
Продолжительность: 01:38:05Перевод: Одноголосый закадровый
Субтитры: нет
Оригинальная аудиодорожка: немецкийРежиссер: Роберт Ван Акерен / Robert van AckerenВ ролях: Мирием Руссель
Хорст-Гюнтер Маркс
Соня Кирхбергер
Ханнс Цишлер
Рольф Цахер
Херб Андресс
Харри Баэр
Уолтер Буш
Susanne Baeumer
Carsta Van DeyckОписание: Макс, тридцатилетний врач скорой помощи, имеющий экстравагантную, пышногрудую и сексуально озабоченную невесту Коко, всё равно ищет идеальную женщину, которая, мучая и не давая покоя, притягивала бы ещё сильнее. Встреча с Мари заставляет Макса целиком отдаться новому чувству и покорно попасть в западню Венеры…Доп. информация: За видеоряд из сети огромная благодарность oops1974 , а также мне за синхрон дорожки отсюда https://rutracker.org/forum/viewtopic.php?t=2397285Сэмпл: https://yadi.sk/i/0jTdARLHKsFFUwКачество видео: LDRip
Формат видео: AVIВидео: XviD MPEG-4 , 720x480 (1.33:1) , 25.000 fps , 1 721 Kbps
Аудио: AC3 , 48 kHz , 192.00 kbps avg , 2/0 (L,R)
Аудио 2: AC3 , 48 kHz , 192.00 kbps avg , 2/0 (L,R)

MediaInfo

Complete name           Западня Венеры -Die Venusfalle 1988.aviFormat                      : AVIFormat/Info                 : Audio Video InterleaveFile size                   : 1.45 GiBDuration                    : 1h 38mnOverall bit rate            : 2 119 KbpsWriting application         : VirtualDubMod 1.5.10.3 | www.virtualdub-fr.org || (build 2550/release)Writing library             : VirtualDubMod build 2550/releaseVideoID                          : 0Format                      : MPEG-4 VisualFormat profile              : Advanced Simple@L5Format settings, BVOP       : 1Format settings, QPel       : NoFormat settings, GMC        : No warppointsFormat settings, Matrix     : CustomCodec ID                    : XVIDCodec ID/Hint               : XviDDuration                    : 1h 38mnBit rate                    : 1 721 KbpsWidth                       : 720 pixelsHeight                      : 480 pixelsDisplay aspect ratio        : 3:2Frame rate                  : 25.000 fpsColor space                 : YUVChroma subsampling          : 4:2:0Bit depth                   : 8 bitsScan type                   : ProgressiveCompression mode            : LossyBits/(Pixel*Frame)          : 0.199Stream size                 : 1.18 GiB (81%)Writing library             : XviD 73Audio #1ID                          : 1Format                      : AC-3Format/Info                 : Audio Coding 3Mode extension              : CM (complete main)Format settings, Endianness : BigCodec ID                    : 2000Duration                    : 1h 38mnBit rate mode               : ConstantBit rate                    : 192 KbpsChannel(s)                  : 2 channelsChannel positions           : Front: L RSampling rate               : 48.0 KHzFrame rate                  : 31.250 fps (1536 spf)Compression mode            : LossyDelay relative to video     : 18msStream size                 : 135 MiB (9%)Alignment                   : Split accross interleavesInterleave, duration        : 40 ms (1.00 video frame)Interleave, preload duratio : 500 msAudio #2ID                          : 2Format                      : AC-3Format/Info                 : Audio Coding 3Mode extension              : CM (complete main)Format settings, Endianness : BigCodec ID                    : 2000Duration                    : 1h 38mnBit rate mode               : ConstantBit rate                    : 192 KbpsChannel(s)                  : 2 channelsChannel positions           : Front: L RSampling rate               : 48.0 KHzFrame rate                  : 31.250 fps (1536 spf)Compression mode            : LossyDelay relative to video     : 18msStream size                 : 135 MiB (9%)Alignment                   : Split accross interleavesInterleave, duration        : 40 ms (1.00 video frame)Interleave, preload duratio : 500 ms

Скриншоты

Чтобы скачать этот контент, Вам необходимо:
1. Скачать и установить торрент-клиент [клик для Windows], (для мобильного найдите на Play Маркет).
2. Кликнуть по [Скачать]


Внимание.
Если проверка ВЫ НЕ РОБОТ - не работает, значит Вы используете устаревший браузер.
Установите актуальный браузер и повторно кликните по [Скачать]
Безопасность: торрент-клиент разрешён АВ Касперского.

[mail.asmlocator.ru].t664993.torrent 
Торрент: Зарегистрирован [ 2019-09-17 01:20 ] · 36B713D8C61A017124D2DDB8B4FCCB9259377E4E

Скачать .torrent

Скачать

15 KB

Статус: проверено
Скачан: 0 раз
Размер: 1,45 GB
terms.php
[Профиль] [ЛС]
Показать сообщения:    
Ответить на тему

Текущее время: 21-Окт 10:08

Часовой пояс: UTC ± 0



Вы не можете начинать темы
Вы не можете отвечать на сообщения
Вы не можете редактировать свои сообщения
Вы не можете удалять свои сообщения
Вы не можете голосовать в опросах
Вы не можете прикреплять файлы к сообщениям
Вы можете скачивать файлы
Верим фактам, а не вранью Путина! Факт, что Правительство ведёт Россию к истреблению.
Так как численность населения падает, даже не смотря на приток эмигрантов!
Русская нация вымирает и вырождается, смешиваясь с эмигрантами!
Факт, что военных и граждан предприятий заставляют голосовать за партию Единая Россия и Путина
ПОД СТРАХОМ УВОЛЬНЕНИЯ!
Нам не нужно Правительство, блокирующее личную жизнь, интернет, нарушающее сохранность данных.
Все эти действия финансируются за счёт народа!