V/A Revolution - Retro Music TV [29.08.2019, Rock, SATRip]

Ответить на тему
Статистика раздачи
Размер:  2,66 GB   |    Зарегистрирован:  1 месяц 4 дня   |    Скачан:  0 раз

Полного источника не было: Никогда

 
   
 
 
Автор Сообщение

star21 ®

Пол: Женский

Стаж: 3 года 11 месяцев

Сообщений: 551988

Откуда: Екатеринбург

Создавать темы 16-Сен-2019 19:00

[Цитировать]

V/A Revolution - Retro Music TV Страна: Czech Republic
Жанр: Rock
Канал: By
Продолжительность: 03:35:37
Год выпуска: 29.08.2019
Источник: собственный рип
Качество: SATRip
Контейнер: *.ts
Видео кодек: H.264
Аудио кодек: MPEG
Видео: 720х576 (16/9), 25,000 fps, 1 519 Kbps
Аудио: MPEG, 160 Kbps, 48 KHz, 2.0 channels
Запись видео:
Программа корректировки и конвертации видео: Cypheros TS-Doctor ver. 1.2.22 (Вырезана реклама)Доп. информация: „Na tuhle rockovou klasiku vám nedáme zapomenout! “ (Мы не дадим вам забыть эту рок-классику!)

Tracklist:

01. R.E.M. - Losing My Religion
02. Dire Straits - Brothers In Arms
03. Mandrage - Motýli
04. Chris Rea - Auberge
05. The Rolling Stones - Angie
06. INXS - Never Tear Us Apart
07. Aerosmith - Cryin'
08. My Chemical Romance - Teenagers
09. Tři sestry - Pijánovka
10. Tom Petty – Into the Great Wide Open
11. Genesis - Jesus He Knows Me
12. Joan Jett & The Blackhearts - I Love Rock ‘n’ Roll
13. Bon Jovi - Real Life
14. Wanastowi Vjecy - Slečna Anna Je Za Vodou
15. Queen - Crazy Little Thing Called Love
16. Aleš Brichta - Nemám
17. Lenny Kravitz - California
18. Sheryl Crow– If It Makes You Happy
19. AC/DC - Sink The Pink
20. Edwyn Collins - A Girl Like You
21. Jethro Tull - Witch's Promise
22. Oasis - Stand By Me
23. Red Hot Chili Peppers - Tell Me Baby
24. Whitesnake - Is This Love
25. Soul Asylum - Runaway Train
26. Ozzy Osbourne - Changes
27. Pink Floyd - Money
28. Bryan Adams - Run To You
29. The Cure- Lovesong
30. Plain White T's - Hey There Delilah
31. Scorpions - Rhythm Of Love
32. The Offspring - Pretty Fly
33. The Kinks - Lola
34. Carlos Santana - Samba Pa Ti
35. Linkin Park – Burning in the Skies
36. Mike & The Mechanics - All I Need Is A Miracle
37. Def Leppard - Animal
38. Nickelback - Rockstar
39. Bruce Springsteen - I'm On Fire
40. The Cranberries - Animal Instinct
41. Lucie - Až Tě Potkám
42. Alien Ant Farm - Smooth Criminal
43. The Police - So Lonely
44. Bon Jovi - This Ain't A Love Song
45. U2 & Green Day - The Saints Are Coming
46. Dire Straits - Walk Of Life
47. Boston - More Than A Feeling
48. Blur - Parklife
49. The Smashing Pumpkins - 1979
50. Van Halen - Jump
51. Tři Sestry - O Strašlivé Vojně S Turkem
52. Eric Clapton - Change The World

Описание

Chceš si vyzkoušet práci hudebního dramaturga a připravit večerní pleják? Tak nám na mejl tvujvyber@tvrebel.cz (anebo rovnou použij formulář níže) pošli deset songů, o něž by ses rád podělil s celým rockovým národem a počkej, až se ti ozveme. Když nám pošleš i pár slov o sobě nebo o vybrané muzice a k tomu svoje foto, určitě to bude dřív než později. Neboj, nikde ho nezneužijeme, ale i ostatní Rebelové si rádi poslechnou tvůj příběh a zjistí, kdo jim ve středu večer hraje. A ještě jedna drobnost: jsme televize, tak mysli na to, že vybrané songy by měly mít pokud možno videoklip!Мы являемся популярным общенациональным музыкальным телевидением, которое фокусируется на лучших хитах и музыкальной информации с 60-х годов до начала нового тысячелетия. Как ведущая музыкальная станция в мире, мы комбинируем видеоформаты в диапазоне от 4: 3 до 16: 9 для отображения сопровождающей информации исполнителя, таких как "Биография артиста", "Дополнительная информация", "Обложка альбома", "Дискография" и многое другое. Retro Music TV приносит в ваш дом информацию, выступления самыx известных музыкантов, создавая атмосферу развлечения, вечеринки, положительные эмоции. Мы транслтруем мировые хиты, а также хиты популярных и чешских и словацких исполнителей.

MediaInfo

Код:
General
ID : 3202 (0xC82)
Complete name : D:\d\TORRENTS.RU\Revolution - Retro Music TV - 29.08.2019.ts
Format : MPEG-TS
File size : 2.66 GiB
Duration : 3 h 35 min
Overall bit rate mode : Variable
Overall bit rate : 1 768 kb/sVideo
ID : 575 (0x23F)
Menu ID : 6125 (0x17ED)
Format : AVC
Format/Info : Advanced Video Codec
Format profile : High@L3
Format settings, CABAC : Yes
Format settings, RefFrames : 4 frames
Format settings, GOP : M=4, N=28
Codec ID : 27
Duration : 3 h 35 min
Bit rate : 1 519 kb/s
Width : 720 pixels
Height : 576 pixels
Display aspect ratio : 16:9
Frame rate : 25.000 FPS
Standard : Component
Color space : YUV
Chroma subsampling : 4:2:0
Bit depth : 8 bits
Scan type : Interlaced
Scan type, store method : Separated fields
Scan order : Top Field First
Bits/(Pixel*Frame) : 0.147
Stream size : 2.29 GiB (86%)
Encryption : TPS-Crypt or Viaccess
Color range : Limited
Color primaries : BT.601 PAL
Transfer characteristics : BT.470 System B, BT.470 System G
Matrix coefficients : BT.601Audio
ID : 165 (0xA5)
Menu ID : 6125 (0x17ED)
Format : MPEG Audio
Format version : Version 1
Format profile : Layer 2
Codec ID : 4
Duration : 3 h 35 min
Bit rate mode : Constant
Bit rate : 160 kb/s
Channel(s) : 2 channels
Sampling rate : 48.0 kHz
Compression mode : Lossy
Delay relative to video : 56 ms
Stream size : 247 MiB (9%)
Language : Czech
Encryption : TPS-Crypt or Viaccess

Скриншоты

Скриншоты (Зеркало)

Пока качается, не скучаем, слушаем:MOROW - The Progressive Rock Radio

Чтобы скачать этот контент, Вам необходимо:
1. Скачать и установить торрент-клиент [клик для Windows], (для мобильного найдите на Play Маркет).
2. Кликнуть по [Скачать]


Внимание.
Если проверка ВЫ НЕ РОБОТ - не работает, значит Вы используете устаревший браузер.
Установите актуальный браузер и повторно кликните по [Скачать]
Безопасность: торрент-клиент разрешён АВ Касперского.

[mail.asmlocator.ru].t664888.torrent 
Торрент: Зарегистрирован [ 2019-09-16 19:00 ] · E2D192662B7F76C37DD8D62E2697F0401F716177

Скачать .torrent

Скачать

14 KB

Статус: проверено
Скачан: 0 раз
Размер: 2,66 GB
terms.php
[Профиль] [ЛС]
Показать сообщения:    
Ответить на тему

Текущее время: 21-Окт 09:37

Часовой пояс: UTC ± 0



Вы не можете начинать темы
Вы не можете отвечать на сообщения
Вы не можете редактировать свои сообщения
Вы не можете удалять свои сообщения
Вы не можете голосовать в опросах
Вы не можете прикреплять файлы к сообщениям
Вы можете скачивать файлы
Верим фактам, а не вранью Путина! Факт, что Правительство ведёт Россию к истреблению.
Так как численность населения падает, даже не смотря на приток эмигрантов!
Русская нация вымирает и вырождается, смешиваясь с эмигрантами!
Факт, что военных и граждан предприятий заставляют голосовать за партию Единая Россия и Путина
ПОД СТРАХОМ УВОЛЬНЕНИЯ!
Нам не нужно Правительство, блокирующее личную жизнь, интернет, нарушающее сохранность данных.
Все эти действия финансируются за счёт народа!