[TR24][OF] Neil Young - Tuscaloosa Live (Remastered) - 2019 (Rock)

Ответить на тему
Статистика раздачи
Размер:  1,11 GB   |    Зарегистрирован:  27 дней   |    Скачан:  0 раз

Полного источника не было: Никогда

 
   
 
 
Автор Сообщение

star21 ®

Пол: Женский

Стаж: 3 года 11 месяцев

Сообщений: 551988

Откуда: Екатеринбург

Создавать темы 16-Сен-2019 15:50

[Цитировать]

Neil Young - Tuscaloosa Live Формат записи/Источник записи: [TR24][OF]
Наличие водяных знаков: Нет
Год издания: 2019
Жанр: Rock
Издатель (лейбл): Reprise
Продолжительность: 00:52:29
Наличие сканов в содержимом раздачи: Только обложка альбома
Контейнер: FLAC (*.flac)
Тип рипа: tracks
Разрядность: 24/96
Формат: PCM
Количество каналов: 2.0
Источник (релизер): qobuz.comТреклист
01. Here We Are in the Years
02. After the Gold Rush
03. Out on the Weekend
04. Harvest
05. Old Man
06. Heart of Gold
07. Time Fades Away
08. Lookout Joe
09. New Mama
10. Alabama
11. Don't Be DeniedNeil Young, vocals, guitar, piano, harmonica
Ben Keith, pedal steel, guitars, slide guitar
Jack Nitzsche, piano
Tim Drummond, bass
Kenny Buttrey, drums

Лог проверки качества

foobar2000 1.4 / Dynamic Range Meter 1.1.1log date: 2019-06-07 06:50:42--------------------------------------------------------------------------------Analyzed: Neil Young / Tuscaloosa (Live)--------------------------------------------------------------------------------DR         Peak         RMS     Duration Track--------------------------------------------------------------------------------DR13      -3.58 dB   -21.78 dB      3:57 01-Here We Are in the YearsDR15      -3.04 dB   -22.00 dB      4:42 02-After the Gold RushDR14      -0.14 dB   -17.24 dB      5:29 03-Out on the WeekendDR14      -1.54 dB   -18.36 dB      4:13 04-HarvestDR13      -2.29 dB   -19.07 dB      4:14 05-Old ManDR13      -2.62 dB   -18.45 dB      3:48 06-Heart of GoldDR9       -2.36 dB   -13.50 dB      6:10 07-Time Fades AwayDR11      -0.97 dB   -14.06 dB      5:00 08-Lookout JoeDR10      -1.38 dB   -13.86 dB      3:00 09-New MamaDR11      -0.83 dB   -14.28 dB      3:51 10-AlabamaDR11      -1.33 dB   -15.77 dB      8:09 11-Don't Be Denied--------------------------------------------------------------------------------Number of tracks:  11Official DR value: DR12Samplerate:        96000 HzChannels:          2Bits per sample:   24Bitrate:           3139 kbpsCodec:             FLAC================================================================================

Об альбоме (сборнике)

Tuscaloosa is an 11-track live album from Neil Young and The Stray Gators, recorded at the University of Alabama, Tuscaloosa on February 5th 1973. The Stray Gators backed Neil occasionally in the ‘70’s and are Tim Drummond, Kenny Buttrey, Jack Nitzsche and Ben Keith. The album was produced by Neil Young and Elliot Mazer and mixed by John Hanlon. It is mastered by Chris Bellman at Bernie Grundman from the original analogue tapesTuscaloosa features live versions of songs from Neil’s debut albums (track 1), plus classic songs from two of his biggest selling albums: After The Goldrush and Harvest. The album also features the title track from the live album Time Fades Away that would be released later in 1973, and songs from Neil’s classic album Tonight’s The Night that would not be released until 1975."It’s from the period right around Harvest and Tonight’s the Night," Young told Rolling Stone. "For me, it’s edgy. It’s like those mellow songs with an edge. It’s really trippy to be down in Tuscaloosa, Alabama, and singing those songs from Harvest and the songs that we were doing for Time Fades Away before it came out. I found this thing and it had such a great attitude to it. I just loved the whole night, so I put that together with [engineer] John Hanlon."

Чтобы скачать этот контент, Вам необходимо:
1. Скачать и установить торрент-клиент [клик для Windows], (для мобильного найдите на Play Маркет).
2. Кликнуть по [Скачать]


Внимание.
Если проверка ВЫ НЕ РОБОТ - не работает, значит Вы используете устаревший браузер.
Установите актуальный браузер и повторно кликните по [Скачать]
Безопасность: торрент-клиент разрешён АВ Касперского.

[asmlocator.ru].t664854.torrent 
Торрент: Зарегистрирован [ 2019-09-16 15:50 ] · 03DBB8A0FB47D82900D42AAB3B2F081547530859

Скачать .torrent

Скачать

12 KB

Статус: проверено
Скачан: 0 раз
Размер: 1,11 GB
terms.php
[Профиль] [ЛС]
Показать сообщения:    
Ответить на тему

Текущее время: 14-Окт 09:11

Часовой пояс: UTC ± 0



Вы не можете начинать темы
Вы не можете отвечать на сообщения
Вы не можете редактировать свои сообщения
Вы не можете удалять свои сообщения
Вы не можете голосовать в опросах
Вы не можете прикреплять файлы к сообщениям
Вы можете скачивать файлы
Верим фактам, а не вранью Путина! Факт, что Правительство ведёт Россию к истреблению.
Так как численность населения падает, даже не смотря на приток эмигрантов!
Русская нация вымирает и вырождается, смешиваясь с эмигрантами!
Факт, что военных и граждан предприятий заставляют голосовать за партию Единая Россия и Путина
ПОД СТРАХОМ УВОЛЬНЕНИЯ!
Нам не нужно Правительство, блокирующее личную жизнь, интернет, нарушающее сохранность данных.
Все эти действия финансируются за счёт народа!