[TR24][OF] Motionless In White - Disguise - 2019 (Industrial Metal, Metalcore, Post-Hardcore)

Ответить на тему
Статистика раздачи
Размер:  543 MB   |    Зарегистрирован:  27 дней   |    Скачан:  0 раз

Полного источника не было: Никогда

 
   
 
 
Автор Сообщение

star21 ®

Пол: Женский

Стаж: 3 года 11 месяцев

Сообщений: 551988

Откуда: Екатеринбург

Создавать темы 16-Сен-2019 15:50

[Цитировать]

Motionless In White - Disguise Формат / Источник записи: [TR24][OF]
Наличие водяных знаков: Нет
Год издания: 2019
Жанр: Industrial Metal, Metalcore, Post-Hardcore
Издатель-лейбл: Roadrunner Records
Продолжительность: 00:42:31
Наличие сканов: Нет
Контейнер: FLAC (*.flac)
Тип рипа: tracks
Разрядность: 24/44.1
Формат: PCM
Количество каналов: 2.0
Источник: интернетТреклист:01. Disguise (3:58)
02. Headache (3:29)
03. _ (3:48)
04. Thoughts & Prayers (4:00)
05. Legacy (3:34)
06. Undead Ahead 2: The Tale of the Midnight Ride (4:34)
07. Holding On To Smoke (4:14)
08. Another Life (3:25)
09. Broadcasting From Beyond the Grave: Death Inc. (3:55)
10. Brand New Numb (3:42)
11. Catharsis (3:52)

Лог проверки качества

foobar2000 1.4.4 / Замер динамического диапазона (DR) 1.1.1Дата отчёта:  2019-06-09 23:00:27--------------------------------------------------------------------------------Анализ:   Motionless In White / Disguise--------------------------------------------------------------------------------DR         Пики         RMS           Продолжительность трека--------------------------------------------------------------------------------DR5       -0.03 дБ    -6.22 дБ      3:58 01-DisguiseDR5        0.00 дБ    -6.47 дБ      3:29 02-HeadacheDR5        0.00 дБ    -5.73 дБ      3:48 03-_DR5        0.00 дБ    -5.47 дБ      4:00 04-Thoughts & PrayersDR5       -0.04 дБ    -6.93 дБ      3:34 05-LegacyDR5        0.00 дБ    -6.03 дБ      4:34 06-Undead Ahead 2: The Tale of the Midnight RideDR5        0.00 дБ    -6.03 дБ      4:14 07-Holding On To SmokeDR5       -0.02 дБ    -6.34 дБ      3:25 08-Another LifeDR5        0.00 дБ    -6.52 дБ      3:55 09-Broadcasting From Beyond the Grave: Death Inc.DR5       -0.04 дБ    -6.83 дБ      3:42 10-Brand New NumbDR5       -0.03 дБ    -6.79 дБ      3:52 11-Catharsis--------------------------------------------------------------------------------Количество треков: 11Реальные значения DR: DR5Частота:   44100 ГцКаналов:   2Разрядность:   24Битрейт:   1771 кбит/сКодек:   FLAC================================================================================

Чтобы скачать этот контент, Вам необходимо:
1. Скачать и установить торрент-клиент [клик для Windows], (для мобильного найдите на Play Маркет).
2. Кликнуть по [Скачать]


Внимание.
Если проверка ВЫ НЕ РОБОТ - не работает, значит Вы используете устаревший браузер.
Установите актуальный браузер и повторно кликните по [Скачать]
Безопасность: торрент-клиент разрешён АВ Касперского.

[asmlocator.ru].t664844.torrent 
Торрент: Зарегистрирован [ 2019-09-16 15:50 ] · 4705B72A7465BD7202001D9DA4623938D0E05641

Скачать .torrent

Скачать

12 KB

Статус: проверено
Скачан: 0 раз
Размер: 543 MB
terms.php
[Профиль] [ЛС]
Показать сообщения:    
Ответить на тему

Текущее время: 14-Окт 00:56

Часовой пояс: UTC ± 0



Вы не можете начинать темы
Вы не можете отвечать на сообщения
Вы не можете редактировать свои сообщения
Вы не можете удалять свои сообщения
Вы не можете голосовать в опросах
Вы не можете прикреплять файлы к сообщениям
Вы можете скачивать файлы
Верим фактам, а не вранью Путина! Факт, что Правительство ведёт Россию к истреблению.
Так как численность населения падает, даже не смотря на приток эмигрантов!
Русская нация вымирает и вырождается, смешиваясь с эмигрантами!
Факт, что военных и граждан предприятий заставляют голосовать за партию Единая Россия и Путина
ПОД СТРАХОМ УВОЛЬНЕНИЯ!
Нам не нужно Правительство, блокирующее личную жизнь, интернет, нарушающее сохранность данных.
Все эти действия финансируются за счёт народа!