[TR24][OF] Lisa Hannigan & stargaze - Live in Dublin - 2019 (Pop-Rock, Indie Folk, Singer-Songwriter)

Ответить на тему
Статистика раздачи
Размер:  709 MB   |    Зарегистрирован:  27 дней   |    Скачан:  0 раз

Полного источника не было: Никогда

 
   
 
 
Автор Сообщение

star21 ®

Пол: Женский

Стаж: 3 года 11 месяцев

Сообщений: 551988

Откуда: Екатеринбург

Создавать темы 16-Сен-2019 15:50

[Цитировать]

Lisa Hannigan & s t a r g a z e - Live in Dublin Формат записи/Источник записи: [TR24][OF]
Наличие водяных знаков: Нет
Год издания: 2019
Жанр: Pop-Rock, Indie Folk, Singer-Songwriter
Издатель (лейбл): Play It Again Sam
Продолжительность: 01:05:12
Наличие сканов в содержимом раздачи: Только обложка альбома
Контейнер: FLAC (*.flac)
Тип рипа: tracks
Разрядность: 24/44.1
Формат: PCM
Количество каналов: 2.0
Источник (релизер): qobuz.comТреклист
01. Ora
02. Prayer for the Dying
03. Little Bird
04. Undertow
05. Bookmark
06. Anahorish
07. Nowhere to Go
08. Lo
09. Swan
10. We the Drowned
11. Lille
12. A Sail
13. Barton
14. Fall

Лог проверки качества

foobar2000 1.4 / Dynamic Range Meter 1.1.1log date: 2019-06-12 10:49:52--------------------------------------------------------------------------------Analyzed: Lisa Hannigan & s t a r g a z e / Live in Dublin--------------------------------------------------------------------------------DR         Peak         RMS     Duration Track--------------------------------------------------------------------------------DR8        0.00 dB   -11.83 dB      3:38 01-OraDR7        0.00 dB    -8.62 dB      5:08 02-Prayer for the DyingDR9       -0.02 dB   -13.80 dB      5:07 03-Little BirdDR7        0.00 dB   -11.18 dB      5:45 04-UndertowDR8        0.00 dB   -13.25 dB      5:22 05-BookmarkDR9        0.00 dB   -13.16 dB      2:32 06-AnahorishDR8        0.00 dB   -10.75 dB      4:45 07-Nowhere to GoDR8        0.00 dB   -10.30 dB      4:15 08-LoDR7        0.00 dB   -10.51 dB      3:51 09-SwanDR8        0.00 dB   -13.15 dB      6:35 10-We The DrownedDR8        0.00 dB   -12.22 dB      5:17 11-LilleDR7        0.00 dB    -8.98 dB      4:29 12-A SailDR8        0.00 dB   -12.78 dB      4:59 13-BartonDR8       -0.69 dB   -13.14 dB      3:34 14-Fall--------------------------------------------------------------------------------Number of tracks:  14Official DR value: DR8Samplerate:        44100 HzChannels:          2Bits per sample:   24Bitrate:           1524 kbpsCodec:             FLAC================================================================================

Об альбоме (сборнике)

This recording of a concert performed at the National Concert Hall in Dublin in October 2019 begins with two tracks from her third album, At Swim (2016). The performance has the effect of a waking dream in which she expresses a little joie de vivre and a great deal of pain. In this live recording, the singer reinforces the dreaminess of her songs with not only the intrinsic magic of this concert, but also subtly iridescent arrangements. The contemporary classical orchestra s t a r g a z e, led by German conductor Andre de Ridder, accompanies Hannigan on this sparkling and hypnotic journey. Lisa Hannigan’s two other studio albums are also well represented, in particular through the ray of sunshine Lille and the poignant waltz Nowhere to go taken from Sea Sew (2008) and Passenger (2011) respectively. Although Lisa Hannigan’s charming folk remains beautiful and ever-present in these reworkings of her great songs, the contribution of s t a r g a z e brings a color that works to profoundly universalize the style and direction of Damien Rice’s old associate. This Live in Dublin rarely diverges from the ethereal ambiance that was created by the original orchestration (and indeed the soft and vibrant voice of the singer), even though the distinct pace of the album is often broken up by more energetic tunes in which rhythm plays an important role (Swan, A Sail, Lo). The album includes a striking reimagining of Only You by The Platter (Prayer for the dying), as well as the all-new track (Bookmark), in which the melancholic and majestic melody reaches emotional heights.

Чтобы скачать этот контент, Вам необходимо:
1. Скачать и установить торрент-клиент [клик для Windows], (для мобильного найдите на Play Маркет).
2. Кликнуть по [Скачать]


Внимание.
Если проверка ВЫ НЕ РОБОТ - не работает, значит Вы используете устаревший браузер.
Установите актуальный браузер и повторно кликните по [Скачать]
Безопасность: торрент-клиент разрешён АВ Касперского.

[asmlocator.ru].t664830.torrent 
Торрент: Зарегистрирован [ 2019-09-16 15:50 ] · 8BECDA0F3A7735D33C2DC9F12AB39AD376F4A734

Скачать .torrent

Скачать

15 KB

Статус: проверено
Скачан: 0 раз
Размер: 709 MB
terms.php
[Профиль] [ЛС]
Показать сообщения:    
Ответить на тему

Текущее время: 14-Окт 02:23

Часовой пояс: UTC ± 0



Вы не можете начинать темы
Вы не можете отвечать на сообщения
Вы не можете редактировать свои сообщения
Вы не можете удалять свои сообщения
Вы не можете голосовать в опросах
Вы не можете прикреплять файлы к сообщениям
Вы можете скачивать файлы
Верим фактам, а не вранью Путина! Факт, что Правительство ведёт Россию к истреблению.
Так как численность населения падает, даже не смотря на приток эмигрантов!
Русская нация вымирает и вырождается, смешиваясь с эмигрантами!
Факт, что военных и граждан предприятий заставляют голосовать за партию Единая Россия и Путина
ПОД СТРАХОМ УВОЛЬНЕНИЯ!
Нам не нужно Правительство, блокирующее личную жизнь, интернет, нарушающее сохранность данных.
Все эти действия финансируются за счёт народа!