Королевская кобра / King Cobra (Джастин Келли / Justin Kelly) [2016, США, драма, криминал, эротика, биография, гей-тема, HDRip] MVO (Синема УС) + Original Eng

Ответить на тему
Статистика раздачи
Размер:  740 MB   |    Зарегистрирован:  28 дней   |    Скачан:  0 раз

Полного источника не было: Никогда

 
   
 
 
Автор Сообщение

star21 ®

Пол: Женский

Стаж: 3 года 11 месяцев

Сообщений: 551988

Откуда: Екатеринбург

Создавать темы 15-Сен-2019 17:40

[Цитировать]

Королевская кобра / King Cobra Страна: США
Год выпуска: 2016
Жанр: драма, криминал, эротика, биография, гей-тема
Продолжительность: 01:32:11
Перевод: Любительский (многоголосый закадровый) - Синема УС
Оригинальная аудиодорожка: английский
Субтитры: нетРежиссёр: Джастин Келли / Justin Kelly
В ролях: Гарретт Клэйтон, Кристиан Слейтер, Джеймс Франко, Алисия Сильверстоун, Кигэн Аллен, Спенсер Лофранко, Молли Рингуолд, Шона Такер, Кит Скотт Леонард, Рон Саймонс, Дениэл СинасонОписание: Снято на реальной основе.
Фильм рассказывает о начале карьеры Брента Корригана / Brent Corrigan (настоящее имя Шон Локхарт, 1986 г.р.) - одного из самых успешных американских актёров гей-порноиндустрии и модели. Юный Шон приезжает в Калифорнию якобы для учёбы. И...пробует сниматься для порностудии «Cobra Video». Неожиданно видео с юным красавчиком начинает приносить огромную прибыль. Появляются охотники заполучить актёра любыми способами, пусть даже кровавыми.Сэмпл: http://sendfile.su/1511965Качество видео: HDRip
Формат видео: AVIВидео: XviD; 720 x 384 (1,85:1); 23,976 кадров/сек; 860 Кбит/сек
Аудио 1: MP3; 48 КГц; 128 Кбит/сек; 2 канала; MVO (Русский, Синема УС)
Аудио 2: MP3; 48 КГц; 128 Кбит/сек; 2 канала; Оригинал (Английский)

Другие Постеры

MediaInfo

Общее
Формат : AVI
Формат/Информация : Audio Video Interleave
Размер файла : 740 Мбайт
Продолжительность : 1 ч. 32 м.
Общий поток : 1123 Кбит/секВидео
Идентификатор : 0
Формат : MPEG-4 Visual
Профиль формата : Advanced Simple@L5
Настройки формата : BVOP2
Параметр BVOP формата : 2
Параметр QPel формата : Нет
Параметр GMC формата : Без точки перехода
Параметр матрицы формата : Default (H.263)
Идентификатор кодека : XVID
Идентификатор кодека/Подсказка : XviD
Продолжительность : 1 ч. 32 м.
Битрейт : 860 Кбит/сек
Ширина : 720 пикселей
Высота : 384 пикселя
Соотношение сторон : 1,85:1
Частота кадров : 23,976 (24000/1001) кадра/сек
Цветовое пространство : YUV
Субдискретизация насыщенности : 4:2:0
Битовая глубина : 8 бит
Тип развёртки : Прогрессивная
Метод сжатия : С потерями
Бит/(Пиксели*Кадры) : 0.130
Размер потока : 567 Мбайт (77%)
Библиотека кодирования : XviD 67Аудио #1
Идентификатор : 1
Формат : MPEG Audio
Версия формата : Version 1
Профиль формата : Layer 3
Настройки формата : Joint stereo / MS Stereo
Идентификатор кодека : 55
Идентификатор кодека/Подсказка : MP3
Продолжительность : 1 ч. 32 м.
Вид битрейта : Постоянный
Битрейт : 128 Кбит/сек
Каналы : 2 канала
Частота : 48,0 КГц
Частота кадров : 41,667 кадра/сек (1152 SPF)
Метод сжатия : С потерями
Размер потока : 84,4 Мбайт (11%)
Выравнивание : Соединение по промежуткам
Продолжительность промежутка : 167 мс. (4,00 видеокадра)
Время предзагрузки промежутка : 216 мс.
Заголовок : Синема Ус
Библиотека кодирования : LAME3.100
Настройки программы : -m j -V 4 -q 2 -lowpass 17 -b 128Аудио #2
Идентификатор : 2
Формат : MPEG Audio
Версия формата : Version 1
Профиль формата : Layer 3
Настройки формата : Joint stereo / MS Stereo
Идентификатор кодека : 55
Идентификатор кодека/Подсказка : MP3
Продолжительность : 1 ч. 32 м.
Вид битрейта : Постоянный
Битрейт : 128 Кбит/сек
Каналы : 2 канала
Частота : 48,0 КГц
Частота кадров : 41,667 кадра/сек (1152 SPF)
Метод сжатия : С потерями
Размер потока : 84,4 Мбайт (11%)
Выравнивание : Соединение по промежуткам
Продолжительность промежутка : 167 мс. (4,00 видеокадра)
Время предзагрузки промежутка : 216 мс.
Заголовок : English
Библиотека кодирования : LAME3.100
Настройки программы : -m j -V 4 -q 2 -lowpass 17 -b 128

Скриншот c названием фильма

Если у кого есть желание ознакомиться с другими художественными и документальными фильмами , сериалами , мультфильмами и аниме, передачами по ЛГБТ-тематике , то на Рутрекере есть тема ЛГБТ в кинематографе .

Чтобы скачать этот контент, Вам необходимо:
1. Скачать и установить торрент-клиент [клик для Windows], (для мобильного найдите на Play Маркет).
2. Кликнуть по [Скачать]


Внимание.
Если проверка ВЫ НЕ РОБОТ - не работает, значит Вы используете устаревший браузер.
Установите актуальный браузер и повторно кликните по [Скачать]
Безопасность: торрент-клиент разрешён АВ Касперского.

[asmlocator.ru].t664496.torrent 
Торрент: Зарегистрирован [ 2019-09-15 17:40 ] · 25B8CADA91DE7188A8676F4F3A7663DAE7B8F562

Скачать .torrent

Скачать

15 KB

Статус: проверено
Скачан: 0 раз
Размер: 740 MB
terms.php
[Профиль] [ЛС]
Показать сообщения:    
Ответить на тему

Текущее время: 14-Окт 07:49

Часовой пояс: UTC ± 0



Вы не можете начинать темы
Вы не можете отвечать на сообщения
Вы не можете редактировать свои сообщения
Вы не можете удалять свои сообщения
Вы не можете голосовать в опросах
Вы не можете прикреплять файлы к сообщениям
Вы можете скачивать файлы
Верим фактам, а не вранью Путина! Факт, что Правительство ведёт Россию к истреблению.
Так как численность населения падает, даже не смотря на приток эмигрантов!
Русская нация вымирает и вырождается, смешиваясь с эмигрантами!
Факт, что военных и граждан предприятий заставляют голосовать за партию Единая Россия и Путина
ПОД СТРАХОМ УВОЛЬНЕНИЯ!
Нам не нужно Правительство, блокирующее личную жизнь, интернет, нарушающее сохранность данных.
Все эти действия финансируются за счёт народа!