Архитектор / The Architect (Джонатан Паркер / Jonathan Parker) [2016, США, драма, комедия, WEB-DLRip] MVO (SDI-Media) + Original Eng

Ответить на тему
Статистика раздачи
Размер:  1,46 GB   |    Зарегистрирован:  28 дней   |    Скачан:  0 раз

Полного источника не было: Никогда

 
   
 
 
Автор Сообщение

star21 ®

Пол: Женский

Стаж: 3 года 11 месяцев

Сообщений: 551988

Откуда: Екатеринбург

Создавать темы 15-Сен-2019 14:30

[Цитировать]

Архитектор / The Architect Страна: США
Жанр: драма, комедия
Год выпуска: 2016
Продолжительность: 01:36:10Перевод: Профессиональный (многоголосый закадровый) - компания «SDI-Media»
Субтитры: нет
Оригинальная аудиодорожка: английскаяРежиссер: Джонатан Паркер / Jonathan ParkerВ ролях: Паркер Поузи, Джон Кэрролл Линч, Джеймс Фрейн, Эрик Маккормак, Памела Рид, Джон Эйлуорд, Дэна Милликэн, Алисия Делмор, Майкл Пэйнс, Macall Gordon.Описание: Желая построить дом мечты, пара решила воспользоваться услугами бескомпромиссного архитектора-модерниста. Он приступает к созданию дома мечты — но не пары, а своей. Доп. информация: Исходник (WEB-Rip 1080p) позаимствован из релиза Supernova на TPB
Благодарность за запись с эфира озвучки компании «SDI-Media» направляется Sonntag204
WEB-DLRip и синхронизация русской звуковой дорожки - Arle-kino Качество видео: WEB-DLRip
Формат видео: AVIВидео: 720x400 (1.80:1), 23.976 fps, XviD build 50 ~1770 kbps avg, 0.26 bit/pixel
Аудио 1: 48 kHz, AC3 Dolby Digital, 2/0 (L,R) ch, ~192 kbps - Rus
Аудио 2: 48 kHz, AC3 Dolby Digital, 2/0 (L,R) ch, ~192 kbps - Eng

MediaInfo

GeneralComplete name               : D:\Public\The Architect (2016) WEB-DLRip [SDI-Media Rus, Eng].aviFormat                      : AVIFormat/Info                 : Audio Video InterleaveFile size                   : 1.46 GiBDuration                    : 1 h 36 minOverall bit rate            : 2 169 kb/sWriting application         : VirtualDubMod 1.5.10.2 (build 2540/release)Writing library             : VirtualDubMod build 2540/releaseVideoID                          : 0Format                      : MPEG-4 VisualFormat profile              : Advanced Simple@L5Format settings, BVOP       : 1Format settings, QPel       : NoFormat settings, GMC        : No warppointsFormat settings, Matrix     : Default (MPEG)Codec ID                    : XVIDCodec ID/Hint               : XviDDuration                    : 1 h 36 minBit rate                    : 1 771 kb/sWidth                       : 720 pixelsHeight                      : 400 pixelsDisplay aspect ratio        : 16:9Frame rate                  : 23.976 (24000/1001) FPSColor space                 : YUVChroma subsampling          : 4:2:0Bit depth                   : 8 bitsScan type                   : ProgressiveCompression mode            : LossyBits/(Pixel*Frame)          : 0.256Stream size                 : 1.19 GiB (82%)Writing library             : XviD 1.2.1 (UTC 2008-12-04)Audio #1ID                          : 1Format                      : AC-3Format/Info                 : Audio Coding 3Format settings, Endianness : BigCodec ID                    : 2000Duration                    : 1 h 36 minBit rate mode               : ConstantBit rate                    : 192 kb/sChannel(s)                  : 2 channelsChannel positions           : Front: L RSampling rate               : 48.0 kHzFrame rate                  : 31.250 FPS (1536 SPF)Bit depth                   : 16 bitsCompression mode            : LossyStream size                 : 132 MiB (9%)Alignment                   : Split accross interleavesInterleave, duration        : 42  ms (1.00 video frame)Interleave, preload duratio : 500  msTitle                       : RusService kind                : Complete MainAudio #2ID                          : 2Format                      : AC-3Format/Info                 : Audio Coding 3Format settings, Endianness : BigCodec ID                    : 2000Duration                    : 1 h 36 minBit rate mode               : ConstantBit rate                    : 192 kb/sChannel(s)                  : 2 channelsChannel positions           : Front: L RSampling rate               : 48.0 kHzFrame rate                  : 31.250 FPS (1536 SPF)Bit depth                   : 16 bitsCompression mode            : LossyStream size                 : 132 MiB (9%)Alignment                   : Split accross interleavesInterleave, duration        : 42  ms (1.00 video frame)Interleave, preload duratio : 500  msTitle                       : EngService kind                : Complete Main

Скриншот c названием фильма

Скриншоты

Чтобы скачать этот контент, Вам необходимо:
1. Скачать и установить торрент-клиент [клик для Windows], (для мобильного найдите на Play Маркет).
2. Кликнуть по [Скачать]


Внимание.
Если проверка ВЫ НЕ РОБОТ - не работает, значит Вы используете устаревший браузер.
Установите актуальный браузер и повторно кликните по [Скачать]
Безопасность: торрент-клиент разрешён АВ Касперского.

[asmlocator.ru].t664463.torrent 
Торрент: Зарегистрирован [ 2019-09-15 14:30 ] · 4E66F911D0476916A8964BC0078E42DD6C5F28BB

Скачать .torrent

Скачать

15 KB

Статус: проверено
Скачан: 0 раз
Размер: 1,46 GB
terms.php
[Профиль] [ЛС]
Показать сообщения:    
Ответить на тему

Текущее время: 14-Окт 07:45

Часовой пояс: UTC ± 0



Вы не можете начинать темы
Вы не можете отвечать на сообщения
Вы не можете редактировать свои сообщения
Вы не можете удалять свои сообщения
Вы не можете голосовать в опросах
Вы не можете прикреплять файлы к сообщениям
Вы можете скачивать файлы
Верим фактам, а не вранью Путина! Факт, что Правительство ведёт Россию к истреблению.
Так как численность населения падает, даже не смотря на приток эмигрантов!
Русская нация вымирает и вырождается, смешиваясь с эмигрантами!
Факт, что военных и граждан предприятий заставляют голосовать за партию Единая Россия и Путина
ПОД СТРАХОМ УВОЛЬНЕНИЯ!
Нам не нужно Правительство, блокирующее личную жизнь, интернет, нарушающее сохранность данных.
Все эти действия финансируются за счёт народа!