Без злого умысла / Absence of Malice (Сидни Поллак / Sydney Pollack) [1981, США, триллер, драма, мелодрама, BDRip] MVO + AVO (Леонид Володарский) + Original Eng

Ответить на тему
Статистика раздачи
Размер:  2,19 GB   |    Зарегистрирован:  28 дней   |    Скачан:  0 раз

Полного источника не было: Никогда

 
   
 
 
Автор Сообщение

star21 ®

Пол: Женский

Стаж: 3 года 11 месяцев

Сообщений: 551988

Откуда: Екатеринбург

Создавать темы 15-Сен-2019 05:00

[Цитировать]

Без злого умысла / Absence of Malice Страна: США
Жанр: триллер, драма, мелодрама
Год выпуска: 1981
Продолжительность: 01:56:14Перевод: Профессиональный (многоголосый закадровый)
Перевод: Авторский (одноголосый закадровый) - Леонид Володарский
Субтитры: нет
Оригинальная аудиодорожка: английскийРежиссер: Сидни Поллак / Sydney PollackВ ролях: Пол Ньюман, Сэлли Филд, Боб Бэлабан, Мелинда Диллон, Лютер Эдлер, Бэрри Праймус, Йозеф Зоммер, Джон Харкинс, Дон Худ, Уилфорд БримлиОписание: Майкл Колин Галлахер, сын давно убитого босса мафии, не пошел по стопам отца, а занялся вполне законным делом. Он стал владельцем ликерной лавки. Неожиданно его жизнь переворачивается с ног на голову. Следователь, ведущий дело об убийстве, отчаявшись найти настоящего преступника, обеспечивает утечку информации в прессу, согласно которой главным подозреваемым становится Майкл. Таким образом следователь хочет получить какие-то новые сведения по ведомому им делу, но Колину нечего сказать полиции. Теперь его задача - попробовать восстановить контроль над своей жизнью, и в этом ему сможет помочь журналистка Меган Картер…СэмплКачество видео: BDRip
Формат видео: AVIВидео: 720x384 (1.88:1), 23.976 fps, XviD build 73 ~2118 kbps avg, 0.32 bit/pixel
Аудио: 48 kHz, AC3 Dolby Digital, 2/0 (L,R) ch, ~192 kbps - многоголосый
Аудио: 48 kHz, AC3 Dolby Digital, 2/0 (L,R) ch, ~192 kbps - авторский
Аудио: 48 kHz, AC3 Dolby Digital, 2/0 (L,R) ch, ~192 kbps - оригинал

MediaInfo

ОбщееПолное имя                               : H:\Absence.of.Malice.1981.bdrip_[2.18].aviФормат                                   : AVIФормат/Информация                        : Audio Video InterleaveПрофиль формата                          : OpenDMLРазмер файла                             : 2,19 ГбайтПродолжительность                        : 1 ч. 56 м.Общий поток                              : 2699 Кбит/секПрограмма кодирования                    : VirtualDubMod 1.5.10.3 | www.virtualdub-fr.org || (build 2550/release)Библиотека кодирования                   : VirtualDubMod build 2550/releaseВидеоИдентификатор                            : 0Формат                                   : MPEG-4 VisualПрофиль формата                          : Advanced Simple@L5Параметр BVOP формата                    : 2Параметр QPel формата                    : НетПараметр GMC формата                     : Без точки переходаПараметр матрицы формата                 : ВыборочнаяИдентификатор кодека                     : XVIDИдентификатор кодека/Подсказка           : XviDПродолжительность                        : 1 ч. 56 м.Битрейт                                  : 2101 Кбит/секШирина                                   : 720 пикселейВысота                                   : 384 пикселяСоотношение сторон                       : 1,85:1Частота кадров                           : 23,976 кадра/секЦветовое пространство                    : YUVСубдискретизация насыщенности            : 4:2:0Битовая глубина                          : 8 битТип развёртки                            : ПрогрессивнаяМетод сжатия                             : С потерямиБит/(Пиксели*Кадры)                      : 0.317Размер потока                            : 1,71 Гбайт (78%)Библиотека кодирования                   : XviD 73Аудио #1Идентификатор                            : 1Формат                                   : AC-3Формат/Информация                        : Audio Coding 3Расширение режима                        : CM (complete main)Параметр Endianness формата              : BigИдентификатор кодека                     : 2000Продолжительность                        : 1 ч. 55 м.Вид битрейта                             : ПостоянныйБитрейт                                  : 192 Кбит/секКаналы                                   : 2 каналаРасположение каналов                     : Front: L RЧастота                                  : 48,0 КГцБитовая глубина                          : 16 битМетод сжатия                             : С потерямиРазмер потока                            : 159 Мбайт (7%)Выравнивание                             : Разделение по промежуткамПродолжительность промежутка             : 42  мс. (1,00 видеокадр)Время предзагрузки промежутка            : 500  мс.Аудио #2Идентификатор                            : 2Формат                                   : AC-3Формат/Информация                        : Audio Coding 3Расширение режима                        : CM (complete main)Параметр Endianness формата              : BigИдентификатор кодека                     : 2000Продолжительность                        : 1 ч. 55 м.Вид битрейта                             : ПостоянныйБитрейт                                  : 192 Кбит/секКаналы                                   : 2 каналаРасположение каналов                     : Front: L RЧастота                                  : 48,0 КГцБитовая глубина                          : 16 битМетод сжатия                             : С потерямиРазмер потока                            : 159 Мбайт (7%)Выравнивание                             : Разделение по промежуткамПродолжительность промежутка             : 42  мс. (1,00 видеокадр)Время предзагрузки промежутка            : 500  мс.Аудио #3Идентификатор                            : 3Формат                                   : AC-3Формат/Информация                        : Audio Coding 3Расширение режима                        : CM (complete main)Параметр Endianness формата              : BigИдентификатор кодека                     : 2000Продолжительность                        : 1 ч. 56 м.Вид битрейта                             : ПостоянныйБитрейт                                  : 192 Кбит/секКаналы                                   : 2 каналаРасположение каналов                     : Front: L RЧастота                                  : 48,0 КГцБитовая глубина                          : 16 битМетод сжатия                             : С потерямиРазмер потока                            : 160 Мбайт (7%)Выравнивание                             : Разделение по промежуткамПродолжительность промежутка             : 42  мс. (1,00 видеокадр)Время предзагрузки промежутка            : 500  мс.

Скриншоты

Релиз группы:

Чтобы скачать этот контент, Вам необходимо:
1. Скачать и установить торрент-клиент [клик для Windows], (для мобильного найдите на Play Маркет).
2. Кликнуть по [Скачать]


Внимание.
Если проверка ВЫ НЕ РОБОТ - не работает, значит Вы используете устаревший браузер.
Установите актуальный браузер и повторно кликните по [Скачать]
Безопасность: торрент-клиент разрешён АВ Касперского.

[asmlocator.ru].t664277.torrent 
Торрент: Зарегистрирован [ 2019-09-15 05:00 ] · 85FF7B7CB9AD0491E5DF58140E3C84179168006F

Скачать .torrent

Скачать

11 KB

Статус: проверено
Скачан: 0 раз
Размер: 2,19 GB
terms.php
[Профиль] [ЛС]
Показать сообщения:    
Ответить на тему

Текущее время: 14-Окт 00:34

Часовой пояс: UTC ± 0



Вы не можете начинать темы
Вы не можете отвечать на сообщения
Вы не можете редактировать свои сообщения
Вы не можете удалять свои сообщения
Вы не можете голосовать в опросах
Вы не можете прикреплять файлы к сообщениям
Вы можете скачивать файлы
Верим фактам, а не вранью Путина! Факт, что Правительство ведёт Россию к истреблению.
Так как численность населения падает, даже не смотря на приток эмигрантов!
Русская нация вымирает и вырождается, смешиваясь с эмигрантами!
Факт, что военных и граждан предприятий заставляют голосовать за партию Единая Россия и Путина
ПОД СТРАХОМ УВОЛЬНЕНИЯ!
Нам не нужно Правительство, блокирующее личную жизнь, интернет, нарушающее сохранность данных.
Все эти действия финансируются за счёт народа!