За окно. Рассказы из жизни Хармса (Михаил Сафронов) [2014, Россия, авторская анимация, WEBRip]

Ответить на тему
Статистика раздачи
Размер:  171 MB   |    Зарегистрирован:  7 дней   |    Скачан:  0 раз

Полного источника не было: Никогда

 
   
 
 
Автор Сообщение

star21 ®

Пол: Женский

Стаж: 3 года 10 месяцев

Сообщений: 551989

Откуда: Екатеринбург

Создавать темы 11-Сен-2019 00:30

[Цитировать]

За окно. Рассказы из жизни Хармса Страна: Россия
Жанр: авторская анимация
Год выпуска: 2014
Продолжительность: 00:11:05
Субтитры: нетРежиссёр: Михаил СафроновТекст читает: Сергей ДрейденОписание: Биографический мультфильм на основе рассказов и дневниковых записей Даниила Хармса.Качество видео: WEBRip
Формат видео: AVIВидео: 1956 kbps, 720х400 (16:9), 25.000 fps, MPEG-4 Visual (XviD)
Аудио: 192 kbps, 44.1 kHz, 2 channels, MPEG Audio (MP3)

MediaInfo

GeneralComplete name                            : За окно. Рассказы из жизни Хармса.aviFormat                                   : AVIFormat/Info                              : Audio Video InterleaveFile size                                : 171 MiBDuration                                 : 11mn 5sOverall bit rate                         : 2 160 KbpsWriting application                      : MEncoder SVN-r30881(20100311-gcc4.3.3)Writing library                          : MPlayerVideoID                                       : 0Format                                   : MPEG-4 VisualFormat profile                           : Advanced Simple@L5Format settings, BVOP                    : 2Format settings, QPel                    : NoFormat settings, GMC                     : No warppointsFormat settings, Matrix                  : Default (H.263)Codec ID                                 : XVIDCodec ID/Hint                            : XviDDuration                                 : 11mn 4sBit rate                                 : 1 956 KbpsWidth                                    : 720 pixelsHeight                                   : 400 pixelsDisplay aspect ratio                     : 16:9Original display aspect ratio            : 16:9Frame rate                               : 25.000 fpsColor space                              : YUVChroma subsampling                       : 4:2:0Bit depth                                : 8 bitsScan type                                : ProgressiveCompression mode                         : LossyBits/(Pixel*Frame)                       : 0.272Stream size                              : 155 MiB (91%)Writing library                          : XviD 1.2.1 (UTC 2008-12-04)AudioID                                       : 1Format                                   : MPEG AudioFormat version                           : Version 1Format profile                           : Layer 3Mode                                     : Joint stereoMode extension                           : MS StereoCodec ID                                 : 55Codec ID/Hint                            : MP3Duration                                 : 11mn 5sBit rate mode                            : ConstantBit rate                                 : 192 KbpsChannel(s)                               : 2 channelsSampling rate                            : 44.1 KHzCompression mode                         : LossyDelay relative to video                  : 40msStream size                              : 15.2 MiB (9%)Alignment                                : Aligned on interleavesInterleave, duration                     : 26 ms (0.65 video frame)Interleave, preload duration             : 522 msWriting library                          : LAME3.98

Скриншот c названием фильма

Скриншоты


Чтобы скачать этот контент, Вам необходимо:
1. Скачать и установить торрент-клиент [клик для Windows], (для мобильного найдите на Play Маркет).
2. Кликнуть по [Скачать]


Внимание.
Если проверка ВЫ НЕ РОБОТ - не работает, значит Вы используете устаревший браузер.
Установите актуальный браузер и повторно кликните по [Скачать]
Безопасность: торрент-клиент разрешён АВ Касперского.

[asmlocator.ru].t663175.torrent 
Торрент: Зарегистрирован [ 2019-09-11 00:30 ] · DABA372A6FBB2A463A64508730A18DA68811057F

Скачать .torrent

Скачать

14 KB

Статус: проверено
Скачан: 0 раз
Размер: 171 MB
terms.php
[Профиль] [ЛС]
Показать сообщения:    
Ответить на тему

Текущее время: 18-Сен 22:06

Часовой пояс: UTC ± 0



Вы не можете начинать темы
Вы не можете отвечать на сообщения
Вы не можете редактировать свои сообщения
Вы не можете удалять свои сообщения
Вы не можете голосовать в опросах
Вы не можете прикреплять файлы к сообщениям
Вы можете скачивать файлы
Верим фактам, а не вранью Путина! Факт, что Правительство ведёт Россию к истреблению.
Так как численность населения падает, даже не смотря на приток эмигрантов!
Русская нация вымирает и вырождается, смешиваясь с эмигрантами!
Факт, что военных и граждан предприятий заставляют голосовать за партию Единая Россия и Путина
ПОД СТРАХОМ УВОЛЬНЕНИЯ!
Нам не нужно Правительство, блокирующее личную жизнь, интернет, нарушающее сохранность данных.
Все эти действия финансируются за счёт народа!