Битва за Беларусь. Лето 44-го (1-2 части из 2) / (Владимир Маркевич) [2019, история, военный, HDTV 1080i]

Ответить на тему
Статистика раздачи
Размер:  1,58 GB   |    Зарегистрирован:  9 дней   |    Скачан:  0 раз

Полного источника не было: Никогда

 
   
 
 
Автор Сообщение

star21 ®

Пол: Женский

Стаж: 3 года 10 месяцев

Сообщений: 551989

Откуда: Екатеринбург

Создавать темы 09-Сен-2019 07:20

[Цитировать]

Битва за Беларусь. Лето 44-го (1-2 части из 2) Год выпуска: 2019
Страна: Беларусь
Жанр: история, военный
Продолжительность: 00:24:07 + 00:24:46
Перевод: Не требуется
Русские субтитры: нетРежиссер: Владимир МаркевичВедущий программы: Игорь Сигов
Текст читали: Татьяна Ружавская, Денис МукомолОписание: К весне 1944 года вся левобережная, большая часть правобережной Украины и белорусского Полесья были освобождены от фашистов. Но на центральном участке фронта положение оставалось критическим. Немецкая армия прочно удерживала позиции. Требовался решительный план. Им и стала операция «Багратион». >>> Собственная запись со спутника Eutelsat 36A/36B (36°E) | Мир Premium (эфир 03.07.2019г.)Тип релиза: HDTV 1080i
Контейнер: MKVВидео: MPEG-4 AVC / PAL 16:9 / 1920x1080 (1,78:1) / 4685 kbps / 25,000 fps / 0.045 bit/pixel / High@L4
Аудио: Russian / MPEG-2 Audio / 2.0 Ch / 48 kHz / 192 kbps / 16 bit | Original

MediaInfo

Код:
Общее
Уникальный идентификатор : 9923638125884333630651477946612113264 (0x77739227B2B9528BC8230F4E508DF70)
Полное имя : N:\HDTV\Битва за Беларусь. Лето 44-го.2019.1080i.HDTV.MPEG4.MP.2.0.(1-2 части из 2)\Битва за Беларусь. Лето 44-го.2019.1080i.HDTV.MPEG4.MP.2.0.(1 часть).mkv
Формат : Matroska
Версия формата : Version 4
Размер файла : 756 Мбайт
Продолжительность : 24 м. 7 с.
Общий поток : 4381 Кбит/сек
Дата кодирования : UTC 2019-07-03 19:36:35
Программа кодирования : mkvmerge v35.0.0 ('All The Love In The World') 64-bit
Библиотека кодирования : libebml v1.3.9 + libmatroska v1.5.2Видео
Идентификатор : 1
Формат : AVC
Формат/Информация : Advanced Video Codec
Профиль формата : High@L4
Настройки формата : CABAC / 4 Ref Frames
Параметр CABAC формата : Да
Параметр RefFrames формата : 4 кадра
Идентификатор кодека : V_MPEG4/ISO/AVC
Продолжительность : 24 м. 7 с.
Битрейт : 4181 Кбит/сек
Ширина : 1920 пикселей
Высота : 1080 пикселей
Соотношение сторон : 16:9
Режим частоты кадров : Переменный
Частота кадров : 49,840 кадров/сек
Частота кадров в оригинале : 25,000 кадров/сек
Стандарт вещания : Component
Цветовое пространство : YUV
Субдискретизация насыщенности : 4:2:0
Битовая глубина : 8 бит
Тип развёртки : Чересстрочная
Метод сохранения типа развёртки : Раздельные поля
Порядок развёртки : Верхнее поле первое
Бит/(Пиксели*Кадры) : 0.040
Размер потока : 721 Мбайт (95%)
Заголовок : HDTV
Язык : Belarusian
Default : Да
Forced : Нет
Цветовой диапазон : Limited
Основные цвета : BT.709
Характеристики трансфера : BT.709
Коэффициенты матрицы : BT.709Аудио
Идентификатор : 2
Формат : MPEG Audio
Версия формата : Version 1
Профиль формата : Layer 2
Идентификатор кодека : A_MPEG/L2
Идентификатор кодека/Подсказка : MP2
Продолжительность : 24 м. 6 с.
Вид битрейта : Постоянный
Битрейт : 192 Кбит/сек
Каналы : 2 канала
Частота : 48,0 КГц
Частота кадров : 41,667 кадра/сек (1152 SPF)
Метод сжатия : С потерями
Размер потока : 33,1 Мбайт (4%)
Язык : Russian
Default : Да
Forced : НетОбщее
Уникальный идентификатор : 177591632596563964517636115347144896673 (0x859AE780CBFE0454C2A4024E4932F0A1)
Полное имя : N:\HDTV\Битва за Беларусь. Лето 44-го.2019.1080i.HDTV.MPEG4.MP.2.0.(1-2 части из 2)\Битва за Беларусь. Лето 44-го.2019.1080i.HDTV.MPEG4.MP.2.0.(2 часть).mkv
Формат : Matroska
Версия формата : Version 4
Размер файла : 866 Мбайт
Продолжительность : 24 м. 46 с.
Общий поток : 4885 Кбит/сек
Дата кодирования : UTC 2019-07-03 19:38:18
Программа кодирования : mkvmerge v35.0.0 ('All The Love In The World') 64-bit
Библиотека кодирования : libebml v1.3.9 + libmatroska v1.5.2Видео
Идентификатор : 1
Формат : AVC
Формат/Информация : Advanced Video Codec
Профиль формата : High@L4
Настройки формата : CABAC / 4 Ref Frames
Параметр CABAC формата : Да
Параметр RefFrames формата : 4 кадра
Идентификатор кодека : V_MPEG4/ISO/AVC
Продолжительность : 24 м. 46 с.
Битрейт : 4685 Кбит/сек
Ширина : 1920 пикселей
Высота : 1080 пикселей
Соотношение сторон : 16:9
Режим частоты кадров : Переменный
Частота кадров : 49,754 кадров/сек
Частота кадров в оригинале : 25,000 кадров/сек
Стандарт вещания : Component
Цветовое пространство : YUV
Субдискретизация насыщенности : 4:2:0
Битовая глубина : 8 бит
Тип развёртки : Чересстрочная
Метод сохранения типа развёртки : Раздельные поля
Порядок развёртки : Верхнее поле первое
Бит/(Пиксели*Кадры) : 0.045
Размер потока : 830 Мбайт (96%)
Заголовок : HDTV
Язык : Belarusian
Default : Да
Forced : Нет
Цветовой диапазон : Limited
Основные цвета : BT.709
Характеристики трансфера : BT.709
Коэффициенты матрицы : BT.709Аудио
Идентификатор : 2
Формат : MPEG Audio
Версия формата : Version 1
Профиль формата : Layer 2
Идентификатор кодека : A_MPEG/L2
Идентификатор кодека/Подсказка : MP2
Продолжительность : 24 м. 46 с.
Вид битрейта : Постоянный
Битрейт : 192 Кбит/сек
Каналы : 2 канала
Частота : 48,0 КГц
Частота кадров : 41,667 кадра/сек (1152 SPF)
Метод сжатия : С потерями
Размер потока : 34,0 Мбайт (4%)
Язык : Russian
Default : Да
Forced : Нет

Чтобы скачать этот контент, Вам необходимо:
1. Скачать и установить торрент-клиент [клик для Windows], (для мобильного найдите на Play Маркет).
2. Кликнуть по [Скачать]


Внимание.
Если проверка ВЫ НЕ РОБОТ - не работает, значит Вы используете устаревший браузер.
Установите актуальный браузер и повторно кликните по [Скачать]
Безопасность: торрент-клиент разрешён АВ Касперского.

[asmlocator.ru].t662528.torrent 
Торрент: Зарегистрирован [ 2019-09-09 07:20 ] · 8910B11851DD395B3A5B517CF0BF21848BC8590E

Скачать .torrent

Скачать

17 KB

Статус: проверено
Скачан: 0 раз
Размер: 1,58 GB
terms.php
[Профиль] [ЛС]
Показать сообщения:    
Ответить на тему

Текущее время: 18-Сен 13:18

Часовой пояс: UTC ± 0



Вы не можете начинать темы
Вы не можете отвечать на сообщения
Вы не можете редактировать свои сообщения
Вы не можете удалять свои сообщения
Вы не можете голосовать в опросах
Вы не можете прикреплять файлы к сообщениям
Вы можете скачивать файлы
Верим фактам, а не вранью Путина! Факт, что Правительство ведёт Россию к истреблению.
Так как численность населения падает, даже не смотря на приток эмигрантов!
Русская нация вымирает и вырождается, смешиваясь с эмигрантами!
Факт, что военных и граждан предприятий заставляют голосовать за партию Единая Россия и Путина
ПОД СТРАХОМ УВОЛЬНЕНИЯ!
Нам не нужно Правительство, блокирующее личную жизнь, интернет, нарушающее сохранность данных.
Все эти действия финансируются за счёт народа!