(OST) [CD] Японская выставка анимации / Nihon Animator Mihonichi / Japan Animator Expo (NIHON ANIMATOR MIHONICHI ORIGINAL BGM SERIES 1) (Various Artists) - 2015, FLAC (tracks+.cue), lossless

Ответить на тему
Статистика раздачи
Размер:  678 MB   |    Зарегистрирован:  28 дней   |    Скачан:  0 раз

Полного источника не было: Никогда

 
   
 
 
Автор Сообщение

star21 ®

Пол: Женский

Стаж: 3 года 10 месяцев

Сообщений: 551989

Откуда: Екатеринбург

Создавать темы 23-Авг-2019 05:10

[Цитировать]

Японская выставка анимации / Nihon Animator Mihonichi / Japan Animator Expo Название альбома: NIHON ANIMATOR MIHONICHI ORIGINAL BGM SERIES 1
Композитор / исполнитель: Yoshitaka Koyama, Yasuyuki Sasaki, TeddyLoid, daoko, Junichi Hoshino, J.S. Bach, You-she Matsuyama, Takeo Watanabe, Hiroyasu Yano, MIYA, Yuji Matsumura, Kisaburo Suzuki, Ayumi Nakamura, TOMISIRO
Жанр: OST
Носитель: CD
Год выпуска диска: 2015
Издатель (лейбл) / Номер по каталогу: King Records / KICA-93240
Страна производитель диска: Япония
Аудиокодек: FLAC (*.flac)
Тип рипа: tracks+.cue
Битрейт аудио: lossless
Продолжительность: 01:13:35
Источник: forums.ffshrine.org
Наличие сканов в содержимом раздачи: да
Треклист:
1 Kankyou
2 Unryuu
3 Sosei
4 Kantai
5 Shingeki
6 HILL CLIMB GIRL_BGM_M1
7 HILL CLIMB GIRL_BGM_M2
8 HILL CLIMB GIRL_BGM_M3
9 HILL CLIMB GIRL
10 HILL CLIMB GIRL_BGM_M5
11 ME!ME!ME! feat. daoko_pt.1
12 ME!ME!ME! feat. daoko_pt.2
13 ME!ME!ME! feat. daoko_pt.3
14 ME!ME!ME! CHRONIC feat. daoko (TeddyLoid Mega Remix)
15 Carnage_BGM_m001
16 Carnage_BGM_m002
17 Carnage_BGM_m003 "Subete no Hito wa Shinanakereba Naranai"
18 Carnage_BGM_m004
19 Carnage_BGM_m005
20 Vendetta
21 Subtitle
22 Nagai Nemuri
23 Tatakai e no Kyoufu
24 Senjou wo Shippuu no you ni
25 Kurenai no Kidou Heiki (M-14)
26 Gundam Daichi ni Tatsu
27 Rika no Mezame
28 Giant Footsteps
29 Chakushin
30 Into Battle
31 Chuuousen
32 SKY5
33 Yume no Hero
34 Motto Kimi wo Shireba
35 Asia no Kaizoku
36 Hatsudentai 33-gou
37 Shuurai, Proto Titan
38 Kakusei, Electric Magma
39 Hajimari

Лог создания рипа

Exact Audio Copy V1.0 beta 6 from 9. April 2015EAC extraction logfile from 15. May 2015, 14:41V.A. / 日本アニメ(ーター)見本市サウンドトラック第一弾 Limited EditionUsed drive  : HL-DT-STBD-RE  WH14NS40   Adapter: 1  ID: 0Read mode               : SecureUtilize accurate stream : YesDefeat audio cache      : YesMake use of C2 pointers : NoRead offset correction                      : 6Overread into Lead-In and Lead-Out          : NoFill up missing offset samples with silence : YesDelete leading and trailing silent blocks   : NoNull samples used in CRC calculations       : YesUsed interface                              : Native Win32 interface for Win NT & 2000Gap handling                                : Appended to previous trackUsed output format              : User Defined EncoderSelected bitrate                : 1024 kBit/sQuality                         : HighAdd ID3 tag                     : NoCommand line compressor         : C:\Apps\Audio\flac.exeAdditional command line options : -V -8 -T "artist=%artist%" -T "title=%title%" -T "album=%albumtitle%" -T "date=%year%" -T "tracknumber=%tracknr1%" -T "genre=%genre%" %source%TOC of the extracted CD     Track |   Start  |  Length  | Start sector | End sector    ---------------------------------------------------------        1  |  0:00.00 |  1:18.64 |         0    |     5913        2  |  1:18.64 |  0:44.32 |      5914    |     9245        3  |  2:03.21 |  0:33.26 |      9246    |    11746        4  |  2:36.47 |  0:51.14 |     11747    |    15585        5  |  3:27.61 |  0:43.36 |     15586    |    18846        6  |  4:11.22 |  0:50.48 |     18847    |    22644        7  |  5:01.70 |  0:26.05 |     22645    |    24599        8  |  5:28.00 |  1:21.27 |     24600    |    30701        9  |  6:49.27 |  1:44.27 |     30702    |    38528       10  |  8:33.54 |  1:02.37 |     38529    |    43215       11  |  9:36.16 |  1:32.16 |     43216    |    50131       12  | 11:08.32 |  1:31.32 |     50132    |    56988       13  | 12:39.64 |  2:37.07 |     56989    |    68770       14  | 15:16.71 |  6:21.51 |     68771    |    97396       15  | 21:38.47 |  1:06.35 |     97397    |   102381       16  | 22:45.07 |  2:03.30 |    102382    |   111636       17  | 24:48.37 |  0:34.26 |    111637    |   114212       18  | 25:22.63 |  1:03.01 |    114213    |   118938       19  | 26:25.64 |  0:52.62 |    118939    |   122900       20  | 27:18.51 |  4:22.74 |    122901    |   142624       21  | 31:41.50 |  0:09.20 |    142625    |   143319       22  | 31:50.70 |  2:37.01 |    143320    |   155095       23  | 34:27.71 |  1:06.22 |    155096    |   160067       24  | 35:34.18 |  2:56.41 |    160068    |   173308       25  | 38:30.59 |  1:54.54 |    173309    |   181912       26  | 40:25.38 |  0:39.08 |    181913    |   184845       27  | 41:04.46 |  1:02.28 |    184846    |   189523       28  | 42:06.74 |  0:51.38 |    189524    |   193386       29  | 42:58.37 |  0:52.32 |    193387    |   197318       30  | 43:50.69 |  1:03.10 |    197319    |   202053       31  | 44:54.04 |  5:02.32 |    202054    |   224735       32  | 49:56.36 |  4:39.33 |    224736    |   245693       33  | 54:35.69 |  3:53.45 |    245694    |   263213       34  | 58:29.39 |  3:36.11 |    263214    |   279424       35  | 62:05.50 |  4:58.36 |    279425    |   301810       36  | 67:04.11 |  0:53.47 |    301811    |   305832       37  | 67:57.58 |  0:29.44 |    305833    |   308051       38  | 68:27.27 |  1:55.31 |    308052    |   316707       39  | 70:22.58 |  3:28.30 |    316708    |   332337Track  1     Filename R:\Music\ripping\01. 艦橋.wav     Pre-gap length  0:00:02.00     Peak level 95.5 %     Extraction speed 2.1 X     Track quality 100.0 %     Test CRC 97DAA1B8     Copy CRC 97DAA1B8     Track not present in AccurateRip database     Copy OKTrack  2     Filename R:\Music\ripping\02. 雲龍.wav     Pre-gap length  0:00:00.50     Peak level 95.5 %     Extraction speed 0.7 X     Track quality 100.0 %     Test CRC 24623B2E     Copy CRC 24623B2E     Track not present in AccurateRip database     Copy OKTrack  3     Filename R:\Music\ripping\03. 甦生.wav     Pre-gap length  0:00:00.50     Peak level 95.5 %     Extraction speed 0.6 X     Track quality 100.0 %     Test CRC 2C59A49A     Copy CRC 2C59A49A     Track not present in AccurateRip database     Copy OKTrack  4     Filename R:\Music\ripping\04. 艦隊.wav     Pre-gap length  0:00:00.50     Peak level 95.5 %     Extraction speed 0.8 X     Track quality 100.0 %     Test CRC ACF1001C     Copy CRC ACF1001C     Track not present in AccurateRip database     Copy OKTrack  5     Filename R:\Music\ripping\05. 進撃.wav     Pre-gap length  0:00:00.50     Peak level 95.5 %     Extraction speed 0.5 X     Track quality 99.7 %     Test CRC 1BE834DB     Copy CRC 1BE834DB     Track not present in AccurateRip database     Copy OKTrack  6     Filename R:\Music\ripping\06. HILL CLIMB GIRL_BGM_M1.wav     Pre-gap length  0:00:03.12     Peak level 95.5 %     Extraction speed 0.8 X     Track quality 100.0 %     Test CRC 55040293     Copy CRC 55040293     Track not present in AccurateRip database     Copy OKTrack  7     Filename R:\Music\ripping\07. HILL CLIMB GIRL_BGM_M2.wav     Pre-gap length  0:00:00.50     Peak level 95.5 %     Extraction speed 0.6 X     Track quality 100.0 %     Test CRC 34CA0178     Copy CRC 34CA0178     Track not present in AccurateRip database     Copy OKTrack  8     Filename R:\Music\ripping\08. HILL CLIMB GIRL_BGM_M3.wav     Pre-gap length  0:00:00.50     Peak level 99.2 %     Extraction speed 1.0 X     Track quality 100.0 %     Test CRC A3842BAD     Copy CRC A3842BAD     Track not present in AccurateRip database     Copy OKTrack  9     Filename R:\Music\ripping\09. HILL CLIMB GIRL.wav     Pre-gap length  0:00:00.50     Peak level 95.5 %     Extraction speed 1.1 X     Track quality 100.0 %     Test CRC 809D281D     Copy CRC 809D281D     Track not present in AccurateRip database     Copy OKTrack 10     Filename R:\Music\ripping\10. HILL CLIMB GIRL_BGM_M5.wav     Pre-gap length  0:00:00.50     Peak level 97.1 %     Extraction speed 0.9 X     Track quality 100.0 %     Test CRC C690F3E7     Copy CRC C690F3E7     Track not present in AccurateRip database     Copy OKTrack 11     Filename R:\Music\ripping\11. ME!ME!ME! feat.daoko _pt.1.wav     Pre-gap length  0:00:03.13     Peak level 99.2 %     Extraction speed 1.1 X     Track quality 100.0 %     Test CRC A4E163C8     Copy CRC A4E163C8     Track not present in AccurateRip database     Copy OKTrack 12     Filename R:\Music\ripping\12. ME!ME!ME! feat.daoko _pt.2.wav     Pre-gap length  0:00:00.50     Peak level 99.2 %     Extraction speed 1.1 X     Track quality 100.0 %     Test CRC E5B84E40     Copy CRC E5B84E40     Track not present in AccurateRip database     Copy OKTrack 13     Filename R:\Music\ripping\13. ME!ME!ME! feat.daoko _pt.3.wav     Pre-gap length  0:00:00.50     Peak level 97.1 %     Extraction speed 1.3 X     Track quality 100.0 %     Test CRC 094E58E9     Copy CRC 094E58E9     Track not present in AccurateRip database     Copy OKTrack 14     Filename R:\Music\ripping\14. ME!ME!ME! CHRONIC feat.daoko (TeddyLoid Mega Remix).wav     Pre-gap length  0:00:00.50     Peak level 98.2 %     Extraction speed 1.6 X     Track quality 100.0 %     Test CRC 6DD8F75B     Copy CRC 6DD8F75B     Track not present in AccurateRip database     Copy OKTrack 15     Filename R:\Music\ripping\15. Carnage_BGM_m001.wav     Pre-gap length  0:00:03.13     Peak level 99.2 %     Extraction speed 1.2 X     Track quality 100.0 %     Test CRC 124D28DE     Copy CRC 124D28DE     Track not present in AccurateRip database     Copy OKTrack 16     Filename R:\Music\ripping\16. Carnage_BGM_m002.wav     Pre-gap length  0:00:00.50     Peak level 99.2 %     Extraction speed 1.5 X     Track quality 100.0 %     Test CRC 17F9899B     Copy CRC 17F9899B     Track not present in AccurateRip database     Copy OKTrack 17     Filename R:\Music\ripping\17. Carnage_BGM_m003 「すべての人は死ななければならない」.wav     Pre-gap length  0:00:00.50     Peak level 79.5 %     Extraction speed 0.9 X     Track quality 100.0 %     Test CRC 001A29ED     Copy CRC 001A29ED     Track not present in AccurateRip database     Copy OKTrack 18     Filename R:\Music\ripping\18. Carnage_BGM_m004.wav     Pre-gap length  0:00:00.50     Peak level 95.8 %     Extraction speed 1.2 X     Track quality 100.0 %     Test CRC A9DCB192     Copy CRC A9DCB192     Track not present in AccurateRip database     Copy OKTrack 19     Filename R:\Music\ripping\19. Carnage_BGM_m005.wav     Pre-gap length  0:00:00.50     Peak level 99.2 %     Extraction speed 1.1 X     Track quality 100.0 %     Test CRC AC43ED10     Copy CRC AC43ED10     Track not present in AccurateRip database     Copy OKTrack 20     Filename R:\Music\ripping\20. Vendetta.wav     Pre-gap length  0:00:00.50     Peak level 99.2 %     Extraction speed 1.8 X     Track quality 100.0 %     Test CRC FBE13ED7     Copy CRC FBE13ED7     Track not present in AccurateRip database     Copy OKTrack 21     Filename R:\Music\ripping\21. サブタイトル.wav     Pre-gap length  0:00:03.13     Peak level 84.1 %     Extraction speed 0.2 X     Track quality 98.8 %     Test CRC BAF8ECBC     Copy CRC BAF8ECBC     Track not present in AccurateRip database     Copy OKTrack 22     Filename R:\Music\ripping\22. 長い眠り.wav     Pre-gap length  0:00:00.50     Peak level 97.1 %     Extraction speed 1.4 X     Track quality 99.9 %     Test CRC 529C681B     Copy CRC 529C681B     Track not present in AccurateRip database     Copy OKTrack 23     Filename R:\Music\ripping\23. 戦いへの恐怖.wav     Pre-gap length  0:00:00.50     Peak level 95.8 %     Extraction speed 1.4 X     Track quality 100.0 %     Test CRC EEEAD9C4     Copy CRC EEEAD9C4     Track not present in AccurateRip database     Copy OKTrack 24     Filename R:\Music\ripping\24. 戦場を疾風のように.wav     Pre-gap length  0:00:00.50     Peak level 97.1 %     Extraction speed 1.8 X     Track quality 100.0 %     Test CRC F27C92E2     Copy CRC F27C92E2     Track not present in AccurateRip database     Copy OKTrack 25     Filename R:\Music\ripping\25. 紅の機動兵器 (M-14).wav     Pre-gap length  0:00:00.50     Peak level 97.1 %     Extraction speed 1.7 X     Track quality 100.0 %     Test CRC 3EF405C1     Copy CRC 3EF405C1     Track not present in AccurateRip database     Copy OKTrack 26     Filename R:\Music\ripping\26. ガンダム大地に立つ.wav     Pre-gap length  0:00:00.50     Peak level 97.1 %     Extraction speed 1.2 X     Track quality 100.0 %     Test CRC 1CEEBE09     Copy CRC 1CEEBE09     Track not present in AccurateRip database     Copy OKTrack 27     Filename R:\Music\ripping\27. リカの目覚め.wav     Pre-gap length  0:00:03.13     Peak level 87.8 %     Extraction speed 1.0 X     Track quality 99.8 %     Test CRC AF46B809     Copy CRC AF46B809     Track not present in AccurateRip database     Copy OKTrack 28     Filename R:\Music\ripping\28. Giant Footsteps.wav     Pre-gap length  0:00:00.50     Peak level 97.1 %     Extraction speed 1.3 X     Track quality 100.0 %     Test CRC 2FF91291     Copy CRC 2FF91291     Track not present in AccurateRip database     Copy OKTrack 29     Filename R:\Music\ripping\29. 着信.wav     Pre-gap length  0:00:00.50     Peak level 78.5 %     Extraction speed 0.9 X     Track quality 99.7 %     Test CRC FDB0744B     Copy CRC FDB0744B     Track not present in AccurateRip database     Copy OKTrack 30     Filename R:\Music\ripping\30. Into Battle.wav     Pre-gap length  0:00:00.50     Peak level 97.1 %     Extraction speed 1.5 X     Track quality 100.0 %     Test CRC F4FE8101     Copy CRC F4FE8101     Track not present in AccurateRip database     Copy OKTrack 31     Filename R:\Music\ripping\31. 中央線.wav     Pre-gap length  0:00:03.12     Peak level 95.5 %     Extraction speed 1.9 X     Track quality 99.9 %     Test CRC AB67A78E     Copy CRC AB67A78E     Track not present in AccurateRip database     Copy OKTrack 32     Filename R:\Music\ripping\32. SKY5.wav     Pre-gap length  0:00:03.13     Peak level 95.5 %     Extraction speed 2.2 X     Track quality 100.0 %     Test CRC 5A651CEB     Copy CRC 5A651CEB     Track not present in AccurateRip database     Copy OKTrack 33     Filename R:\Music\ripping\33. 夢のヒーロー.wav     Pre-gap length  0:00:00.50     Peak level 99.2 %     Extraction speed 2.2 X     Track quality 100.0 %     Test CRC DC970FA5     Copy CRC DC970FA5     Track not present in AccurateRip database     Copy OKTrack 34     Filename R:\Music\ripping\34. もっと君を知れば.wav     Pre-gap length  0:00:00.50     Peak level 99.2 %     Extraction speed 1.8 X     Track quality 99.9 %     Test CRC 57973AAB     Copy CRC 57973AAB     Track not present in AccurateRip database     Copy OKTrack 35     Filename R:\Music\ripping\35. アジアの海賊.wav     Pre-gap length  0:00:03.12     Peak level 95.5 %     Extraction speed 2.1 X     Track quality 99.9 %     Test CRC 06769C99     Copy CRC 06769C99     Track not present in AccurateRip database     Copy OKTrack 36     Filename R:\Music\ripping\36. 発電体33号.wav     Pre-gap length  0:00:03.13     Peak level 99.2 %     Extraction speed 1.6 X     Track quality 100.0 %     Test CRC 03366191     Copy CRC 03366191     Track not present in AccurateRip database     Copy OKTrack 37     Filename R:\Music\ripping\37. 襲来、プロトタイタン.wav     Pre-gap length  0:00:00.50     Peak level 99.2 %     Extraction speed 1.2 X     Track quality 100.0 %     Test CRC E335988E     Copy CRC E335988E     Track not present in AccurateRip database     Copy OKTrack 38     Filename R:\Music\ripping\38. 覚醒、エレキマグマ.wav     Pre-gap length  0:00:00.50     Peak level 99.2 %     Extraction speed 2.1 X     Track quality 100.0 %     Test CRC 622785C7     Copy CRC 622785C7     Track not present in AccurateRip database     Copy OKTrack 39     Filename R:\Music\ripping\39. はじまり.wav     Pre-gap length  0:00:00.50     Peak level 83.9 %     Extraction speed 2.4 X     Track quality 100.0 %     Test CRC 69B2054B     Copy CRC 69B2054B     Track not present in AccurateRip database     Copy OKNone of the tracks are present in the AccurateRip databaseNo errors occurredEnd of status report---- CUETools DB Plugin V2.1.6[CTDB TOCID: lPYbKMptx2_TIBW6F5hgCmbc5xE-] disk not present in databaseSubmit result: lPYbKMptx2_TIBW6F5hgCmbc5xE- has been uploaded==== Log checksum EBEED1AE56E042A0D9B9BF0BA4EFAC958B1FDAB640D4CBABB60741EC6931070A ====

Содержание индексной карты (.CUE)

REM GENRE SoundtrackREM DATE 2015REM DISCID 0E114F27REM COMMENT "ExactAudioCopy v1.0b6"PERFORMER "V.A."TITLE ".....(...).............. Limited Edition"FILE "01. ...wav" WAVE  TRACK 01 AUDIO    TITLE ".."    PERFORMER "V.A."    INDEX 01 00:00:00  TRACK 02 AUDIO    TITLE ".."    PERFORMER "V.A."    INDEX 00 01:18:14FILE "02. ...wav" WAVE    INDEX 01 00:00:00  TRACK 03 AUDIO    TITLE ".."    PERFORMER "V.A."    INDEX 00 00:43:57FILE "03. ...wav" WAVE    INDEX 01 00:00:00  TRACK 04 AUDIO    TITLE ".."    PERFORMER "V.A."    INDEX 00 00:32:51FILE "04. ...wav" WAVE    INDEX 01 00:00:00  TRACK 05 AUDIO    TITLE ".."    PERFORMER "V.A."    INDEX 00 00:50:39FILE "05. ...wav" WAVE    INDEX 01 00:00:00  TRACK 06 AUDIO    TITLE "HILL CLIMB GIRL_BGM_M1"    PERFORMER "V.A."    INDEX 00 00:40:24FILE "06. HILL CLIMB GIRL_BGM_M1.wav" WAVE    INDEX 01 00:00:00  TRACK 07 AUDIO    TITLE "HILL CLIMB GIRL_BGM_M2"    PERFORMER "V.A."    INDEX 00 00:49:73FILE "07. HILL CLIMB GIRL_BGM_M2.wav" WAVE    INDEX 01 00:00:00  TRACK 08 AUDIO    TITLE "HILL CLIMB GIRL_BGM_M3"    PERFORMER "V.A."    INDEX 00 00:25:30FILE "08. HILL CLIMB GIRL_BGM_M3.wav" WAVE    INDEX 01 00:00:00  TRACK 09 AUDIO    TITLE "HILL CLIMB GIRL"    PERFORMER "V.A."    INDEX 00 01:20:52FILE "09. HILL CLIMB GIRL.wav" WAVE    INDEX 01 00:00:00  TRACK 10 AUDIO    TITLE "HILL CLIMB GIRL_BGM_M5"    PERFORMER "V.A."    INDEX 00 01:43:52FILE "10. HILL CLIMB GIRL_BGM_M5.wav" WAVE    INDEX 01 00:00:00  TRACK 11 AUDIO    TITLE "ME!ME!ME! feat.daoko _pt.1"    PERFORMER "V.A."    INDEX 00 00:59:24FILE "11. ME!ME!ME! feat.daoko _pt.1.wav" WAVE    INDEX 01 00:00:00  TRACK 12 AUDIO    TITLE "ME!ME!ME! feat.daoko _pt.2"    PERFORMER "V.A."    INDEX 00 01:31:41FILE "12. ME!ME!ME! feat.daoko _pt.2.wav" WAVE    INDEX 01 00:00:00  TRACK 13 AUDIO    TITLE "ME!ME!ME! feat.daoko _pt.3"    PERFORMER "V.A."    INDEX 00 01:30:57FILE "13. ME!ME!ME! feat.daoko _pt.3.wav" WAVE    INDEX 01 00:00:00  TRACK 14 AUDIO    TITLE "ME!ME!ME! CHRONIC feat.daoko (TeddyLoid Mega Remix)"    PERFORMER "V.A."    INDEX 00 02:36:32FILE "14. ME!ME!ME! CHRONIC feat.daoko (TeddyLoid Mega Remix).wav" WAVE    INDEX 01 00:00:00  TRACK 15 AUDIO    TITLE "Carnage_BGM_m001"    PERFORMER "V.A."    INDEX 00 06:18:38FILE "15. Carnage_BGM_m001.wav" WAVE    INDEX 01 00:00:00  TRACK 16 AUDIO    TITLE "Carnage_BGM_m002"    PERFORMER "V.A."    INDEX 00 01:05:60FILE "16. Carnage_BGM_m002.wav" WAVE    INDEX 01 00:00:00  TRACK 17 AUDIO    TITLE "Carnage_BGM_m003 .................."    PERFORMER "V.A."    INDEX 00 02:02:55FILE "17. Carnage_BGM_m003 ...................wav" WAVE    INDEX 01 00:00:00  TRACK 18 AUDIO    TITLE "Carnage_BGM_m004"    PERFORMER "V.A."    INDEX 00 00:33:51FILE "18. Carnage_BGM_m004.wav" WAVE    INDEX 01 00:00:00  TRACK 19 AUDIO    TITLE "Carnage_BGM_m005"    PERFORMER "V.A."    INDEX 00 01:02:26FILE "19. Carnage_BGM_m005.wav" WAVE    INDEX 01 00:00:00  TRACK 20 AUDIO    TITLE "Vendetta"    PERFORMER "V.A."    INDEX 00 00:52:12FILE "20. Vendetta.wav" WAVE    INDEX 01 00:00:00  TRACK 21 AUDIO    TITLE "......"    PERFORMER "V.A."    INDEX 00 04:19:61FILE "21. .......wav" WAVE    INDEX 01 00:00:00  TRACK 22 AUDIO    TITLE "...."    PERFORMER "V.A."    INDEX 00 00:08:45FILE "22. .....wav" WAVE    INDEX 01 00:00:00  TRACK 23 AUDIO    TITLE "......"    PERFORMER "V.A."    INDEX 00 02:36:26FILE "23. .......wav" WAVE    INDEX 01 00:00:00  TRACK 24 AUDIO    TITLE "........."    PERFORMER "V.A."    INDEX 00 01:05:47FILE "24. ..........wav" WAVE    INDEX 01 00:00:00  TRACK 25 AUDIO    TITLE "...... (M-14)"    PERFORMER "V.A."    INDEX 00 02:55:66FILE "25. ...... (M-14).wav" WAVE    INDEX 01 00:00:00  TRACK 26 AUDIO    TITLE "........."    PERFORMER "V.A."    INDEX 00 01:54:04FILE "26. ..........wav" WAVE    INDEX 01 00:00:00  TRACK 27 AUDIO    TITLE "......"    PERFORMER "V.A."    INDEX 00 00:35:70FILE "27. .......wav" WAVE    INDEX 01 00:00:00  TRACK 28 AUDIO    TITLE "Giant Footsteps"    PERFORMER "V.A."    INDEX 00 01:01:53FILE "28. Giant Footsteps.wav" WAVE    INDEX 01 00:00:00  TRACK 29 AUDIO    TITLE ".."    PERFORMER "V.A."    INDEX 00 00:50:63FILE "29. ...wav" WAVE    INDEX 01 00:00:00  TRACK 30 AUDIO    TITLE "Into Battle"    PERFORMER "V.A."    INDEX 00 00:51:57FILE "30. Into Battle.wav" WAVE    INDEX 01 00:00:00  TRACK 31 AUDIO    TITLE "..."    PERFORMER "V.A."    INDEX 00 00:59:73FILE "31. ....wav" WAVE    INDEX 01 00:00:00  TRACK 32 AUDIO    TITLE "SKY5"    PERFORMER "V.A."    INDEX 00 04:59:19FILE "32. SKY5.wav" WAVE    INDEX 01 00:00:00  TRACK 33 AUDIO    TITLE "......"    PERFORMER "V.A."    INDEX 00 04:38:58FILE "33. .......wav" WAVE    INDEX 01 00:00:00  TRACK 34 AUDIO    TITLE "........"    PERFORMER "V.A."    INDEX 00 03:52:70FILE "34. .........wav" WAVE    INDEX 01 00:00:00  TRACK 35 AUDIO    TITLE "......"    PERFORMER "V.A."    INDEX 00 03:32:74FILE "35. .......wav" WAVE    INDEX 01 00:00:00  TRACK 36 AUDIO    TITLE "...33."    PERFORMER "V.A."    INDEX 00 04:55:23FILE "36. ...33..wav" WAVE    INDEX 01 00:00:00  TRACK 37 AUDIO    TITLE ".........."    PERFORMER "V.A."    INDEX 00 00:52:72FILE "37. ...........wav" WAVE    INDEX 01 00:00:00  TRACK 38 AUDIO    TITLE "........."    PERFORMER "V.A."    INDEX 00 00:28:69FILE "38. ..........wav" WAVE    INDEX 01 00:00:00  TRACK 39 AUDIO    TITLE "...."    PERFORMER "V.A."    INDEX 00 01:54:56FILE "39. .....wav" WAVE    INDEX 01 00:00:00

Лог проверки качества

-----------------------DON'T MODIFY THIS FILE-----------------------PERFORMER: auCDtect Task Manager, ver. 1.6.0 RC1 build 1.6.0.1Copyright (c) 2008-2010 y-soft. All rights reservedhttp://y-soft.orgANALYZER: auCDtect: CD records authenticity detector, version 0.8.2Copyright (c) 2004 Oleg Berngardt. All rights reserved.Copyright (c) 2004 Alexander Djourik. All rights reserved.FILE: 39. Makico Miyara & RINK - Hajimari.flac  Size: 15052687 Hash: EFD099B5C7B08EB7ADBE85C71C23DEBB Accuracy: -m0  Conclusion: CDDA 100%  Signature: 2E9F25535DEE5D0F0A1FB676A60B1C95C50A8CCEFILE: 38. TOMISIRO - Kakusei, Electric Magma.flac  Size: 10956479 Hash: 87F0E9C206F3EE7C7750A3B7448EA192 Accuracy: -m0  Conclusion: CDDA 100%  Signature: 4B0F65D2C01DE8F0F66FDCD50BEDA075CF9CEFE2FILE: 37. TOMISIRO - Shuurai, Proto Titan.flac  Size: 2514454 Hash: EB008CBFC5D44091D0DB9436AFDFC103 Accuracy: -m0  Conclusion: CDDA 100%  Signature: 5121C7787D34414B8B5E812825B70E41AF8A6BB4FILE: 36. TOMISIRO - Hatsudentai 33-gou.flac  Size: 4285450 Hash: 82382C3F7380F006B4272E2B200B38E9 Accuracy: -m0  Conclusion: CDDA 99%  Signature: BA02A97324CC18B5CB90A3BB3A6FD4D1BA663A5BFILE: 35. Koichi Yamadera - Asia no Kaizoku.flac  Size: 38287328 Hash: 5D1FA65CB268070DF567788BC857F5F0 Accuracy: -m0  Conclusion: CDDA 99%  Signature: 75D6C74A92EE2CC8594BBCB01D7F2111E1FD7194FILE: 34. Norio Sakai - Motto Kimi wo Shireba.flac  Size: 28087758 Hash: F1259372EEB3365A0DD5E15ECEDE20E7 Accuracy: -m0  Conclusion: CDDA 100%  Signature: F4CA7418EB709C6C829C341F8A4AEAF26F1FBD10FILE: 33. Norio Sakai - Yume no Hero.flac  Size: 31168754 Hash: 6DBE77518288E69E03C4811080021893 Accuracy: -m0  Conclusion: CDDA 100%  Signature: 5D07FD4A1CF4363D7F580CCE5DEC73F2D171414AFILE: 32. Avaivartika - SKY5.flac  Size: 30524066 Hash: 8389B16FA6CF445387797F84106837A6 Accuracy: -m0  Conclusion: CDDA 100%  Signature: 44368E8F1F597C0E0BEE33DCF13EC9F5ECE6DAD2FILE: 31. MIYA - Chuuousen.flac  Size: 26826349 Hash: 0247155231AE136F2767975070A186D0 Accuracy: -m0  Conclusion: CDDA 100%  Signature: B246B630E40261F522D5ADBAFDE502ACDF1CC7D3FILE: 30. Hiroyasu Yano - Into Battle.flac  Size: 6754404 Hash: AAE2C437B49158FC8715DDCB453B539A Accuracy: -m0  Conclusion: CDDA 100%  Signature: 4908451A0BA2C172DE2FD409C5AF5BB9A9C684FAFILE: 29. Hiroyasu Yano - Chakushin.flac  Size: 4027535 Hash: 3A5B6EDD7B16BA3EEE27230C78F1FCD1 Accuracy: -m0  Conclusion: CDDA 99%  Signature: A9E4D68CEB8FE7BD1B789DA9F3FF044AAF90D2B2FILE: 28. Hiroyasu Yano - Giant Footsteps.flac  Size: 4711263 Hash: C5C50F756C8AFE536F83973CC2AF1B2C Accuracy: -m0  Conclusion: CDDA 100%  Signature: 1A7B06DF6662C604F41BF2B5B1802B0A4323EB21FILE: 27. Hiroyasu Yano - Rika no Mezame.flac  Size: 3255379 Hash: C7BB472700B17F7BDD1A5583108A3A61 Accuracy: -m0  Conclusion: CDDA 100%  Signature: E667E1EC711A03B49605D88FD5460218C475FE2BFILE: 26. Yuushi Matsuyama - Gundam Daichi ni Tatsu.flac  Size: 3764214 Hash: 1D8627671EC07BC32073DBA79BA9029D Accuracy: -m0  Conclusion: CDDA 100%  Signature: 82C4DD0DFB2FDC43221EB31741FDC9439BEABFC4FILE: 25. Yuushi Matsuyama - Kurenai no Kidou Heiki (M-14).flac  Size: 12992866 Hash: B9BD2CE2F5B0B5BF2E01A118EA51B159 Accuracy: -m0  Conclusion: CDDA 100%  Signature: 43DB6F9A2034727769F2C14ADAA4598F5304F8B3FILE: 24. Takeo Watanabe - Senjou wo Shippuu no you ni.flac  Size: 20172255 Hash: 6D714BABAC4F4E9E8012817BDEFB53B6 Accuracy: -m0  Conclusion: CDDA 100%  Signature: 101C82269851CD0F4D227C5F530050E346863A1BFILE: 23. Yuushi Matsuyama - Tatakai e no Kyoufu.flac  Size: 6748116 Hash: 49B4EC4284A21EB74C9AE61A86971C33 Accuracy: -m0  Conclusion: CDDA 100%  Signature: 08CA311E78E15209D5ED92CE3588D33741D6407BFILE: 22. Yuushi Matsuyama - Nagai Nemuri.flac  Size: 16429863 Hash: 9BA8309F5FE2C27049DD9B0BD0256014 Accuracy: -m0  Conclusion: CDDA 100%  Signature: BB49610D8BC0C2FA3908F59C3FE20E761516CE06FILE: 21. Yuushi Matsuyama - Subtitle.flac  Size: 725691 Hash: 8D12D04EE6CCC1879C3A239B2EBD40F9 Accuracy: -m0  Conclusion: CDDA 100%  Signature: 2DAFC81C691EB589AD1C214632E84570933EC11FFILE: 20. Junichi Hoshino - Vendetta.flac  Size: 23606653 Hash: 4D1F78785E47A901F498BB915C18D20E Accuracy: -m0  Conclusion: CDDA 100%  Signature: 352DC3CA6E45594F0B2F17C533F14213CC54234FFILE: 19. Junichi Hoshino - Carnage_BGM_m005.flac  Size: 4198963 Hash: 4365864EE48957573556BE360650ACBD Accuracy: -m0  Conclusion: CDDA 100%  Signature: 8E459A83039EAEEFD8D7CBC74C2965EA75DB3907FILE: 18. Junichi Hoshino - Carnage_BGM_m004.flac  Size: 4600359 Hash: B39D32CB98EB395C68C3A3B0F4A0BB01 Accuracy: -m0  Conclusion: CDDA 100%  Signature: ADA4CCF3F310069AB487802130E653846EC81C02FILE: 17. Junichi Hoshino - Carnage_BGM_m003 ''Subete no Hito wa Shinanakereba Naranai''.flac  Size: 2016429 Hash: A43FAE87101DACC1FA928D1DD67817EC Accuracy: -m0  Conclusion: CDDA 100%  Signature: 5D99212A9B40EBCF0186DDD7F5EEEA2F7443D77BFILE: 16. Junichi Hoshino - Carnage_BGM_m002.flac  Size: 11198639 Hash: B7421CCC2718CF85FF3E494EF3DC9C7F Accuracy: -m0  Conclusion: CDDA 100%  Signature: 90E94C00D9B86F5BC6E4F85264CF671443CE9F67FILE: 15. Junichi Hoshino - Carnage_BGM_m001.flac  Size: 5545148 Hash: C9EED94F0F3B9FFB4531481AB7F176BC Accuracy: -m0  Conclusion: CDDA 100%  Signature: 5DDB78C83E4E5AE79C1845B87731FD1E35283BEFFILE: 14. TeddyLoid & daoko - ME!ME!ME! CHRONIC feat. daoko (TeddyLoid Mega Remix).flac  Size: 51746489 Hash: 09483C70A6FE9149F40F39CE605F0403 Accuracy: -m0  Conclusion: CDDA 100%  Signature: 57DEE82B13EC35574469CC606AF05E4E5AE3188FFILE: 13. TeddyLoid & daoko - ME!ME!ME! feat. daoko_pt.3.flac  Size: 22004164 Hash: C909F4150755C5D50B4AC1CE7A564382 Accuracy: -m0  Conclusion: CDDA 100%  Signature: 603FC28E37E73A0BD407054D373990A303936E8DFILE: 12. TeddyLoid & daoko - ME!ME!ME! feat. daoko_pt.2.flac  Size: 9903178 Hash: EBADE58250EBE344EB5AFD43FDF9EB45 Accuracy: -m0  Conclusion: CDDA 100%  Signature: C872A845EBF4B783335D4AABA6073D1E14BB8664FILE: 11. TeddyLoid & daoko - ME!ME!ME! feat. daoko_pt.1.flac  Size: 11881819 Hash: A19C99753F7513D735D2523DB2CCA6CB Accuracy: -m0  Conclusion: CDDA 100%  Signature: B413952FF835BF428D7BDAABD15644904217A2B1FILE: 10. Yasuyuki Sasaki - HILL CLIMB GIRL_BGM_M5.flac  Size: 7122160 Hash: 6A8F447CE7FF1D4CE82A9D23A5C3D6B8 Accuracy: -m0  Conclusion: CDDA 100%  Signature: C801BBE2095407A004B2FF3859B436D90EA6B1C7FILE: 09. Satomi Kawasaki - HILL CLIMB GIRL.flac  Size: 13806303 Hash: 140E9171B66D7F2A8F8D7307FF7C84C0 Accuracy: -m0  Conclusion: CDDA 100%  Signature: 75F4EE18A86C0500F0A1E610A94A93ED0CC817E0FILE: 08. Yasuyuki Sasaki - HILL CLIMB GIRL_BGM_M3.flac  Size: 9473651 Hash: 5D5A56E3C6ADEE13B7EC4643A91E2963 Accuracy: -m0  Conclusion: CDDA 100%  Signature: 58535A4E6D74C2405BFA5B6F0500906883CFEAACFILE: 07. Yasuyuki Sasaki - HILL CLIMB GIRL_BGM_M2.flac  Size: 2920238 Hash: 00E7BC7458A8342C7563E1A44420303C Accuracy: -m0  Conclusion: CDDA 99%  Signature: 2E8AE706C18370A9981C32D41D5C6D8840EE53DBFILE: 06. Yasuyuki Sasaki - HILL CLIMB GIRL_BGM_M1.flac  Size: 4886864 Hash: D3B9BCAD9BCDA24366F2B5E67603B926 Accuracy: -m0  Conclusion: CDDA 100%  Signature: BE07C19471210BAAD55FFAFB6E92B88885DE0134FILE: 05. Yoshitaka Koyama - Shingeki.flac  Size: 4710561 Hash: EF259E07CDCF32746C8EA74658E6AFF3 Accuracy: -m0  Conclusion: CDDA 100%  Signature: D4CDBD1EB7F50F7EEBC1DCFD53E349F9A1FCB704FILE: 04. Yoshitaka Koyama - Kantai.flac  Size: 4741118 Hash: 66540E713C1EDDD4DE9B2B4E496FAE38 Accuracy: -m0  Conclusion: CDDA 100%  Signature: 1C9A3789C8F004359868C4865EDE650FE2F8ED52FILE: 03. Yoshitaka Koyama - Sosei.flac  Size: 3072937 Hash: 7464B12E51D3B5C368F4E865E946012F Accuracy: -m0  Conclusion: CDDA 100%  Signature: 68C741B6E7FEE49A3A1F88F37CFE1B645FAC845FFILE: 02. Yoshitaka Koyama - Unryuu.flac  Size: 4568852 Hash: 725736312340D31CC90A1ADF9E60DC3A Accuracy: -m0  Conclusion: CDDA 100%  Signature: EE57C70E614911D224332497B4BAD164B30E2E03FILE: 01. Yoshitaka Koyama - Kankyou.flac  Size: 8194759 Hash: 1381448AE8795A51A7DF616687F12731 Accuracy: -m0  Conclusion: CDDA 100%  Signature: 305F1181D51C1D1C9927A3704891CE73C03DED90

Доп.информация

VGMdb
CDJapan
King Records

Чтобы скачать этот контент, Вам необходимо:
1. Скачать и установить торрент-клиент [клик для Windows], (для мобильного найдите на Play Маркет).
2. Кликнуть по [Скачать]


Внимание.
Если проверка ВЫ НЕ РОБОТ - не работает, значит Вы используете устаревший браузер.
Установите актуальный браузер и повторно кликните по [Скачать]
Безопасность: торрент-клиент разрешён АВ Касперского.

[asmlocator.ru].t659195.torrent 
Торрент: Зарегистрирован [ 2019-08-23 05:10 ] · F684B07A2B4C8EF258ED234B34F94B8DEB8FA065

Скачать .torrent

Скачать

31 KB

Статус: проверено
Скачан: 0 раз
Размер: 678 MB
terms.php
[Профиль] [ЛС]
Показать сообщения:    
Ответить на тему

Текущее время: 20-Сен 22:14

Часовой пояс: UTC ± 0



Вы не можете начинать темы
Вы не можете отвечать на сообщения
Вы не можете редактировать свои сообщения
Вы не можете удалять свои сообщения
Вы не можете голосовать в опросах
Вы не можете прикреплять файлы к сообщениям
Вы можете скачивать файлы
Верим фактам, а не вранью Путина! Факт, что Правительство ведёт Россию к истреблению.
Так как численность населения падает, даже не смотря на приток эмигрантов!
Русская нация вымирает и вырождается, смешиваясь с эмигрантами!
Факт, что военных и граждан предприятий заставляют голосовать за партию Единая Россия и Путина
ПОД СТРАХОМ УВОЛЬНЕНИЯ!
Нам не нужно Правительство, блокирующее личную жизнь, интернет, нарушающее сохранность данных.
Все эти действия финансируются за счёт народа!