What a Cartoon! / Сезон: 1 / 10 из 48 (Patrick A. Ventura, Genndy Tartakovsky, Robert Alvarez и др.) [1995, США, мультфильм, короткометражка, VHSRip] AVO (Алексеев)

Ответить на тему
Статистика раздачи
Размер:  2,31 GB   |    Зарегистрирован:  26 дней   |    Скачан:  0 раз

Полного источника не было: Никогда

 
   
 
 
Автор Сообщение

star21 ®

Пол: Женский

Стаж: 3 года 10 месяцев

Сообщений: 551989

Откуда: Екатеринбург

Создавать темы 22-Авг-2019 22:50

[Цитировать]

What a Cartoon! Страна: США
Жанр: мультфильм, комедия, короткометражка
Продолжительность серии: 00:07:30
Год выпуска: 1995
Перевод: Авторский (одноголосый закадровый) Антон Алексеев
Русские субтитры: нетРежиссёр: Patrick A. Ventura , Genndy Tartakovsky, Robert Alvarez и др.
Описание: Сборник пилотных выпусков известных мультсериалов студии cartoon network про Крутых девчонок, Джонни Браво, Боида и Воима, лабораторию Декстера, Флинтстоунов и других персонажейСерии в файле по порядку:
1. Dexter's Laboratory
26. Pizza Boy "No Tip"
5. Johnny Bravo
4. Dino "Stay Out!"
27. Gramps
19. Boid 'n' Woim
20. Jof "Help?"
29. Bloo's Gang "Bow-Wow Buccaneers"
21. Podunk Possum "One Step Beyond"
22. The Powerpuff Girls "Crime 101"Доп. информация: О существовании каких либо еще эпизодов с русским переводом мне не известно, DVD или satrip качества мне не удалось отыскатьСемпл: http://multi-up.com/1233908

Качество: VHSRip

Формат: MPEG
Видео: MPEG2 Video, 720x576 (4:3), 25.00fps, 4200Kbps
Аудио: AC3, 48000Hz, stereo, 256Kbps

Скриншоты


Подробные технические данные

Complete name                            : B:\раздачи\what a cartoon!.mpgFormat                                   : MPEG-PSFile size                                : 2.31 GiBDuration                                 : 1 h 13 minOverall bit rate mode                    : VariableOverall bit rate                         : 4 473 kb/sWriting library                          : (dvd5: Oct 19 2015)VideoID                                       : 224 (0xE0)Format                                   : MPEG VideoFormat version                           : Version 2Format profile                           : Main@MainFormat settings, BVOP                    : YesFormat settings, Matrix                  : CustomFormat settings, GOP                     : M=3, N=12Format settings, picture structure       : FrameDuration                                 : 1 h 13 minBit rate mode                            : VariableBit rate                                 : 4 128 kb/sMaximum bit rate                         : 8 000 kb/sWidth                                    : 720 pixelsHeight                                   : 576 pixelsDisplay aspect ratio                     : 4:3Frame rate                               : 25.000 FPSStandard                                 : PALColor space                              : YUVChroma subsampling                       : 4:2:0Bit depth                                : 8 bitsScan type                                : InterlacedScan order                               : Top Field FirstCompression mode                         : LossyBits/(Pixel*Frame)                       : 0.398Time code of first frame                 : 00:00:00:00Time code source                         : Group of pictures headerGOP, Open/Closed                         : OpenStream size                              : 2.13 GiB (92%)Writing library                          : (dvd5: Oct 19 2015)AudioID                                       : 189 (0xBD)-128 (0x80)Format                                   : AC-3Format/Info                              : Audio Coding 3Format settings, Endianness              : BigMuxing mode                              : DVD-VideoDuration                                 : 1 h 13 minBit rate mode                            : ConstantBit rate                                 : 256 kb/sChannel(s)                               : 2 channelsChannel positions                        : Front: L RSampling rate                            : 48.0 kHzFrame rate                               : 31.250 FPS (1536 spf)Bit depth                                : 16 bitsCompression mode                         : LossyDelay relative to video                  : -80 msStream size                              : 135 MiB (6%)Service kind                             : Complete Main

Чтобы скачать этот контент, Вам необходимо:
1. Скачать и установить торрент-клиент [клик для Windows], (для мобильного найдите на Play Маркет).
2. Кликнуть по [Скачать]


Внимание.
Если проверка ВЫ НЕ РОБОТ - не работает, значит Вы используете устаревший браузер.
Установите актуальный браузер и повторно кликните по [Скачать]
Безопасность: торрент-клиент разрешён АВ Касперского.

[asmlocator.ru].t659124.torrent 
Торрент: Зарегистрирован [ 2019-08-22 22:50 ] · 1DC0A157A4E01219D2FC23548FF5820DABE5695A

Скачать .torrent

Скачать

24 KB

Статус: проверено
Скачан: 0 раз
Размер: 2,31 GB
terms.php
[Профиль] [ЛС]
Показать сообщения:    
Ответить на тему

Текущее время: 18-Сен 22:34

Часовой пояс: UTC ± 0



Вы не можете начинать темы
Вы не можете отвечать на сообщения
Вы не можете редактировать свои сообщения
Вы не можете удалять свои сообщения
Вы не можете голосовать в опросах
Вы не можете прикреплять файлы к сообщениям
Вы можете скачивать файлы
Верим фактам, а не вранью Путина! Факт, что Правительство ведёт Россию к истреблению.
Так как численность населения падает, даже не смотря на приток эмигрантов!
Русская нация вымирает и вырождается, смешиваясь с эмигрантами!
Факт, что военных и граждан предприятий заставляют голосовать за партию Единая Россия и Путина
ПОД СТРАХОМ УВОЛЬНЕНИЯ!
Нам не нужно Правительство, блокирующее личную жизнь, интернет, нарушающее сохранность данных.
Все эти действия финансируются за счёт народа!