Тревожный вылет (Владимир Чеботарев) [1983, военный, патриотический, DVB, AVC]

Ответить на тему
Статистика раздачи
Размер:  1,81 GB   |    Зарегистрирован:  1 месяц 28 дней   |    Скачан:  0 раз

Полного источника не было: Никогда

 
   
 
 
Автор Сообщение

star21 ®

Пол: Женский

Стаж: 3 года 11 месяцев

Сообщений: 551988

Откуда: Екатеринбург

Создавать темы 16-Авг-2019 21:10

[Цитировать]

Тревожный вылет Жанр: военный, патриотический
Год выпуска: 1983
Продолжительность: 01:24:05Режиссёр: Владимир ЧеботаревВ ролях: Евгений Киндинов, Александр Галибин, Ирина Дымченко, Владимир Ферапонтов, Ниезахмат Мусоев, Владимир Самойлов, Владимир Гусев, Александр Белявский, Юрий Саранцев, Борис Бачурин, Вера Кузнецова, Улдис ЛиелдиджОписание: Советская патрульная служба обнаруживает в территориальных водах СССР иностранный катер, нарушивший границы государства. Военное командование отдает приказ: захватить экипаж вражеского судна и обезвредить шпионов. Советские моряки не только выполняют опасное задание, но и спасают попавших в беду рыбаков.Доп. информация: Режиссер Владимир Чеботарев ("Человек-амфибия", "Кольцо из Амстердама") снял приключенческий фильм по мотивам повести Е.Воеводина ''Крыши наших домов''.
Запись с телеканала ЗвездаСемпл: http://multi-up.com/1237344Качество видео: DVB
Формат видео: MPEG-TSВидео: AVC, 720x576 (16:9), 25,000 кадров/сек, 2735 Кбит/сек
Аудио: Русский, MP2, 48,0 КГц, 192 Кбит/сек, 2 канала

MediaInfo

Общее
Идентификатор : 1 (0x1)
Полное имя : H:\Тревожный вылет(1983)ZV.ts
Формат : MPEG-TS
Размер файла : 1,81 Гбайт
Продолжительность : 1 ч. 24 м.
Режим общего битрейта : Переменный
Общий поток : 3081 Кбит/секВидео
Идентификатор : 2071 (0x817)
Идентификатор меню : 2070 (0x816)
Формат : AVC
Формат/Информация : Advanced Video Codec
Профиль формата : Main@L3
Настройки формата : CABAC / 3 Ref Frames
Параметр CABAC формата : Да
Параметр RefFrames формата : 3 кадра
Параметр GOP формата : M=4, N=28
Идентификатор кодека : 27
Продолжительность : 1 ч. 24 м.
Битрейт : 2735 Кбит/сек
Ширина : 720 пикселей
Высота : 576 пикселей
Соотношение сторон : 16:9
Частота кадров : 25,000 кадров/сек
Стандарт вещания : Component
Цветовое пространство : YUV
Субдискретизация насыщенности : 4:2:0
Битовая глубина : 8 бит
Тип развёртки : Чересстрочная
Метод сохранения типа развёртки : Раздельные поля
Порядок развёртки : Верхнее поле первое
Бит/(Пиксели*Кадры) : 0.264
Размер потока : 1,61 Гбайт (89%)
Цветовой диапазон : Limited
Основные цвета : BT.601 PAL
Характеристики трансфера : BT.470 System B/G
Коэффициенты матрицы : BT.470 System B/GАудио
Идентификатор : 2072 (0x818)
Идентификатор меню : 2070 (0x816)
Формат : MPEG Audio
Версия формата : Version 1
Профиль формата : Layer 2
Идентификатор кодека : 3
Продолжительность : 1 ч. 24 м.
Вид битрейта : Постоянный
Битрейт : 192 Кбит/сек
Каналы : 2 канала
Частота : 48,0 КГц
Частота кадров : 41,667 кадра/сек (1152 SPF)
Метод сжатия : С потерями
Задержка видео : -80 мс.
Размер потока : 115 Мбайт (6%)
Язык : English

Скриншоты

Чтобы скачать этот контент, Вам необходимо:
1. Скачать и установить торрент-клиент [клик для Windows], (для мобильного найдите на Play Маркет).
2. Кликнуть по [Скачать]


Внимание.
Если проверка ВЫ НЕ РОБОТ - не работает, значит Вы используете устаревший браузер.
Установите актуальный браузер и повторно кликните по [Скачать]
Безопасность: торрент-клиент разрешён АВ Касперского.

[asmlocator.ru].t658023.torrent 
Торрент: Зарегистрирован [ 2019-08-16 21:10 ] · 018D987E528555E3C6618550592CC134F3FAE33A

Скачать .torrent

Скачать

19 KB

Статус: проверено
Скачан: 0 раз
Размер: 1,81 GB
terms.php
[Профиль] [ЛС]
Показать сообщения:    
Ответить на тему

Текущее время: 14-Окт 00:34

Часовой пояс: UTC ± 0



Вы не можете начинать темы
Вы не можете отвечать на сообщения
Вы не можете редактировать свои сообщения
Вы не можете удалять свои сообщения
Вы не можете голосовать в опросах
Вы не можете прикреплять файлы к сообщениям
Вы можете скачивать файлы
Верим фактам, а не вранью Путина! Факт, что Правительство ведёт Россию к истреблению.
Так как численность населения падает, даже не смотря на приток эмигрантов!
Русская нация вымирает и вырождается, смешиваясь с эмигрантами!
Факт, что военных и граждан предприятий заставляют голосовать за партию Единая Россия и Путина
ПОД СТРАХОМ УВОЛЬНЕНИЯ!
Нам не нужно Правительство, блокирующее личную жизнь, интернет, нарушающее сохранность данных.
Все эти действия финансируются за счёт народа!