Ассасинаут: Астронавт-убийца / Assassinaut (Дрю Болдак / Drew Bolduc) [2019, США, фантастика, ужасы, WEB-DLRip] VO (BadBajo)

Ответить на тему
Статистика раздачи
Размер:  1,45 GB   |    Зарегистрирован:  1 месяц 28 дней   |    Скачан:  0 раз

Полного источника не было: Никогда

 
   
 
 
Автор Сообщение

star21 ®

Пол: Женский

Стаж: 3 года 11 месяцев

Сообщений: 551988

Откуда: Екатеринбург

Создавать темы 16-Авг-2019 17:55

[Цитировать]

Ассасинаут: Астронавт-убийца / Assassinaut Страна: США
Жанр: фантастика, ужасы
Год выпуска: 2019
Продолжительность: 01:22:42Перевод: Одноголосый закадровый BadBajo
Субтитры: нет
Оригинальная аудиодорожка: нетРежиссер: Дрю Болдак / Drew BolducВ ролях: Шеннон Хатчинсон, Вито Триго, Жасмина Парент, Джонатан Ньюпорт, Яэл Хаскал, Брайан К. Лэндис, Ирен Сантьяго, Марк Эшворт, Лилли Нельсон, Джеффри Алан СоломонОписание: После очередного ядерного холокоста Земля уже непригодна для жизни. Президент планеты обнаруживает новое место для поселения и к нему отправляют четверых совсем юных астронавтов. Но чуть позже те самые астронавты являются единственной надеждой президента и всей нации на спасение. Качество видео: WEB-DLRip / WEB-DL 1080p
Формат видео: AVIВидео: XviD, 720x304 (2.35:1), 23.976 fps, ~2054 kbps avg, 0.391 bit/pixel
Аудио: 48 kHz, AC3 Dolby Digital, 3/2 (L,C,R,l,r) + LFE ch, ~448 kbps avg

MediaInfo


Код:
Complete name : D:\Раздача\Ассасинаут - Астронавт-убийца (2019) WEB-DLRip_ivanes.avi
Format : AVI
Format/Info : Audio Video Interleave
File size : 1.45 GiB
Duration : 1 h 22 min
Overall bit rate : 2 511 kb/s
Writing application : VirtualDubMod 1.5.10.3 (build 2550/release)
Writing library : VirtualDubMod build 2550/releaseVideo
ID : 0
Format : MPEG-4 Visual
Format profile : Advanced Simple@L5
Format settings, BVOP : 1
Format settings, QPel : No
Format settings, GMC : No warppoints
Format settings, Matrix : Custom
Codec ID : XVID
Codec ID/Hint : XviD
Duration : 1 h 22 min
Bit rate : 2 054 kb/s
Width : 720 pixels
Height : 304 pixels
Display aspect ratio : 2.35:1
Frame rate : 23.976 (24000/1001) FPS
Color space : YUV
Chroma subsampling : 4:2:0
Bit depth : 8 bits
Scan type : Progressive
Compression mode : Lossy
Bits/(Pixel*Frame) : 0.391
Stream size : 1.19 GiB (82%)
Writing library : XviD 67Audio
ID : 1
Format : AC-3
Format/Info : Audio Coding 3
Format settings, Endianness : Big
Codec ID : 2000
Duration : 1 h 22 min
Bit rate mode : Constant
Bit rate : 448 kb/s
Channel(s) : 6 channels
Channel positions : Front: L C R, Side: L R, LFE
Sampling rate : 48.0 kHz
Frame rate : 31.250 FPS (1536 SPF)
Bit depth : 16 bits
Compression mode : Lossy
Stream size : 265 MiB (18%)
Alignment : Split accross interleaves
Interleave, duration : 42 ms (1.00 video frame)
Interleave, preload duratio : 500 ms
Service kind : Complete Main

Скриншоты

Чтобы скачать этот контент, Вам необходимо:
1. Скачать и установить торрент-клиент [клик для Windows], (для мобильного найдите на Play Маркет).
2. Кликнуть по [Скачать]


Внимание.
Если проверка ВЫ НЕ РОБОТ - не работает, значит Вы используете устаревший браузер.
Установите актуальный браузер и повторно кликните по [Скачать]
Безопасность: торрент-клиент разрешён АВ Касперского.

[asmlocator.ru].t658007.torrent 
Торрент: Зарегистрирован [ 2019-08-16 17:55 ] · 889AD6ABF067A2AD52732B07763C3D371D5E3B0A

Скачать .torrent

Скачать

15 KB

Статус: проверено
Скачан: 0 раз
Размер: 1,45 GB
terms.php
[Профиль] [ЛС]
Показать сообщения:    
Ответить на тему

Текущее время: 14-Окт 00:34

Часовой пояс: UTC ± 0



Вы не можете начинать темы
Вы не можете отвечать на сообщения
Вы не можете редактировать свои сообщения
Вы не можете удалять свои сообщения
Вы не можете голосовать в опросах
Вы не можете прикреплять файлы к сообщениям
Вы можете скачивать файлы
Верим фактам, а не вранью Путина! Факт, что Правительство ведёт Россию к истреблению.
Так как численность населения падает, даже не смотря на приток эмигрантов!
Русская нация вымирает и вырождается, смешиваясь с эмигрантами!
Факт, что военных и граждан предприятий заставляют голосовать за партию Единая Россия и Путина
ПОД СТРАХОМ УВОЛЬНЕНИЯ!
Нам не нужно Правительство, блокирующее личную жизнь, интернет, нарушающее сохранность данных.
Все эти действия финансируются за счёт народа!