Абсурдная храбрость / The Absurd Brave / Peng gong qi an (Чанг Фан-Ся / Fang-Hsia Chang) [1969, Тайвань, Приключения, боевик, DVDRip] VO (В. Береговых) + Sub Eng, Zho + Original Zho

Ответить на тему
Статистика раздачи
Размер:  1,46 GB   |    Зарегистрирован:  1 месяц 5 дней   |    Скачан:  0 раз

Полного источника не было: Никогда

 
   
 
 
Автор Сообщение

star21 ®

Пол: Женский

Стаж: 3 года 10 месяцев

Сообщений: 551989

Откуда: Екатеринбург

Создавать темы 16-Авг-2019 17:55

[Цитировать]

Абсурдная храбрость / The Absurd Brave / Peng gong qi an Страна: Тайвань
Студия: 91 Motion Picture Company, Lung Yu Film Company
Жанр: Приключения, боевик
Год выпуска: 1969
Продолжительность: 01:40:43Перевод: Одноголосый закадровый | Виктор Береговых
Субтитры: Английские, китайские
Оригинальная аудиодорожка: китайскийРежиссер: Чанг Фан-Ся / Fang-Hsia ChangВ ролях:
Чун Квон Чу, Сам Суэт Цзянь, Чань Чунь, Вон Юн, Чо Кин, Сунь Чун, О Яу Мань, Чан И Фэй, Ли Кён, Лю Чу, Фай ВаньОписание:
Девятый цветок и ее банда убивают чиновника У Лана и всю его семью, кроме сына У Цзи. Молодой парень клянется отомстить и отправляется в Шао Син. У Цзи хочет найти знаменитого мастера Оуяна Де и стать его учеником. А банда Девятого цветка продолжает совершать кровавые преступления (В.Береговых).| IMDb | Скачать сэмпл | Исходник для рипа DVD-5 |Заказ перевода: vitolinformКачество видео: DVDRip
Формат видео: AVIВидео: 704x320 (2,2:1), 23.976 fps, XviD build 67 ~1675 kbps avg, 0.310 bit/pixel
Аудио 1: AC3, 2/0 (L,R) ch, 192 kbps, 48.0 kHz, 16 bits | Одноголосый закадровый (Виктор Береговых)
Аудио 2: AC3, 2/0 (L,R) ch, 192 kbps, 48.0 kHz, 16 bits | Китайский
Формат субтитров: hardsub (неотключаемые)

MediaInfo

Absurdnaya.Hrabrost.1969.DVDRip.aviФормат                                   : AVIФормат/Информация                        : Audio Video InterleaveРазмер файла                             : 1,46 ГбайтПродолжительность                        : 1 ч. 40 м.Общий поток                              : 2073 Кбит/секНазвание фильма                          : Абсурдная храбрость / Peng gong qi an (1969) DVDRipРежиссёр                                 : Фэнг-Хсиа Чанг / Fang-Hsia ChangЖанр                                     : Приключения, боевикПрограмма кодирования                    : VirtualDubMod 1.5.10.2 (build 2542/release)Формат оригинала/Имя                     : Художественный фильмАвторское право                          : Taiwan, 91 Motion Picture Company, Lung Yu Film CompanyПримечание                               : Rip by vitolinformВидеоИдентификатор                            : 0Формат                                   : MPEG-4 VisualПрофиль формата                          : Advanced Simple@L5Настройки формата                        : BVOP2Параметр BVOP формата                    : 2Параметр QPel формата                    : НетПараметр GMC формата                     : Без точки переходаПараметр матрицы формата                 : Default (MPEG)Идентификатор кодека                     : XVIDИдентификатор кодека/Подсказка           : XviDПродолжительность                        : 1 ч. 40 м.Битрейт                                  : 1675 Кбит/секШирина                                   : 704 пикселяВысота                                   : 320 пикселейСоотношение сторон                       : 2,2:1Частота кадров                           : 23,976 (24000/1001) кадра/секЦветовое пространство                    : YUVСубдискретизация насыщенности            : 4:2:0Битовая глубина                          : 8 битТип развёртки                            : ПрогрессивнаяМетод сжатия                             : С потерямиБит/(Пиксели*Кадры)                      : 0.310Размер потока                            : 1,18 Гбайт (81%)Библиотека кодирования                   : XviD 67Аудио #1Идентификатор                            : 1Формат                                   : AC-3Формат/Информация                        : Audio Coding 3Коммерческое название                    : Dolby DigitalИдентификатор кодека                     : 2000Продолжительность                        : 1 ч. 40 м.Вид битрейта                             : ПостоянныйБитрейт                                  : 192 Кбит/секКаналы                                   : 2 каналаChannelLayout                            : L RЧастота                                  : 48,0 КГцЧастота кадров                           : 31,250 кадров/сек (1536 SPF)Битовая глубина                          : 16 битМетод сжатия                             : С потерямиРазмер потока                            : 138 Мбайт (9%)Выравнивание                             : Разделение по промежуткамПродолжительность промежутка             : 42  мс. (1,00 видеокадр)Время предзагрузки промежутка            : 500  мс.Заголовок                                : Russian (VO Виктор Береговых)ServiceKind/String                       : Complete MainАудио #2Идентификатор                            : 2Формат                                   : AC-3Формат/Информация                        : Audio Coding 3Коммерческое название                    : Dolby DigitalИдентификатор кодека                     : 2000Продолжительность                        : 1 ч. 40 м.Вид битрейта                             : ПостоянныйБитрейт                                  : 192 Кбит/секКаналы                                   : 2 каналаChannelLayout                            : L RЧастота                                  : 48,0 КГцЧастота кадров                           : 31,250 кадров/сек (1536 SPF)Битовая глубина                          : 16 битМетод сжатия                             : С потерямиРазмер потока                            : 138 Мбайт (9%)Выравнивание                             : Разделение по промежуткамПродолжительность промежутка             : 42  мс. (1,00 видеокадр)Время предзагрузки промежутка            : 500  мс.Заголовок                                : ChineseServiceKind/String                       : Complete Main

Скриншоты


Чтобы скачать этот контент, Вам необходимо:
1. Скачать и установить торрент-клиент [клик для Windows], (для мобильного найдите на Play Маркет).
2. Кликнуть по [Скачать]


Внимание.
Если проверка ВЫ НЕ РОБОТ - не работает, значит Вы используете устаревший браузер.
Установите актуальный браузер и повторно кликните по [Скачать]
Безопасность: торрент-клиент разрешён АВ Касперского.

[asmlocator.ru].t657983.torrent 
Торрент: Зарегистрирован [ 2019-08-16 17:55 ] · 0CD590CF6D0C16A3E7DED1BD5D89E1A2D5DEB87D

Скачать .torrent

Скачать

15 KB

Статус: проверено
Скачан: 0 раз
Размер: 1,46 GB
terms.php
[Профиль] [ЛС]
Показать сообщения:    
Ответить на тему

Текущее время: 22-Сен 06:17

Часовой пояс: UTC ± 0



Вы не можете начинать темы
Вы не можете отвечать на сообщения
Вы не можете редактировать свои сообщения
Вы не можете удалять свои сообщения
Вы не можете голосовать в опросах
Вы не можете прикреплять файлы к сообщениям
Вы можете скачивать файлы
Верим фактам, а не вранью Путина! Факт, что Правительство ведёт Россию к истреблению.
Так как численность населения падает, даже не смотря на приток эмигрантов!
Русская нация вымирает и вырождается, смешиваясь с эмигрантами!
Факт, что военных и граждан предприятий заставляют голосовать за партию Единая Россия и Путина
ПОД СТРАХОМ УВОЛЬНЕНИЯ!
Нам не нужно Правительство, блокирующее личную жизнь, интернет, нарушающее сохранность данных.
Все эти действия финансируются за счёт народа!