Игра (Дмитрий Астрахан) [2018, Россия, комедия, триллер, WEB-DL 1080p] Original Rus

Ответить на тему
Статистика раздачи
Размер:  3,56 GB   |    Зарегистрирован:  2 месяца 17 дней   |    Скачан:  1 раз

Полного источника не было: 15 минут

 
   
 
 
Автор Сообщение

star21 ®

Пол: Женский

Стаж: 3 года 11 месяцев

Сообщений: 551988

Откуда: Екатеринбург

Создавать темы 27-Июл-2019 15:10

[Цитировать]

Игра Страна: Россия
Студия: Беларусьфильм, Мавр
Жанр: комедия, триллер
Год выпуска: 2018
Продолжительность: 01:43:09Перевод: Не требуется
Субтитры: нет
Оригинальная аудиодорожка: русскийРежиссёр: Дмитрий АстраханВ ролях: Виктор Васильев, Анар Халилов, Эльвира Болгова, Наталья Бергер, Олег Васильков, Сергей Чугай, Михаил Зуй, Георгий Малявский, Валерия Кожевникова, Павел Воля
Описание: Молодой бизнесмен Юрий Платонов с лёгкостью достиг всего, о чём можно было мечтать: крупный издательский дом, положение в обществе, красавица-жена и даже личный самолёт. Он успешен во всём, за что ни берётся — так не бывает!
Похоже, что его жизнь - кем-то лихо срежиссированный фейк...Кинопоиск
SampleТип релиза: WEB-DL 1080p - iTunes-BLUEBIRD
Контейнер: MKVВидео: MPEG4 AVC Video, H264, 2.40:1, 1908x792, 23.976 fps, 4453 kbps
Аудио: Russian (AC3, 6 ch, 384 kbps, 16 bits, 48.0 KHz) - оригинал

MediaInfo

General
Unique ID : 253170123353921578239489733869837798858 (0xBE76CACAF1366DA892C1DABAEEC4CDCA)
Complete name : D:\Игра.2018.WEB-DL.1080p.mkv
Format : Matroska
Format version : Version 4 / Version 2
File size : 3.56 GiB
Duration : 1 h 43 min
Overall bit rate : 4 935 kb/s
Movie name : GAME_2018_WEB_DL_1080p-BLUEBIRD
Encoded date : UTC 2019-07-17 18:18:11
Writing application : mkvmerge v6.9.1 ('Blue Panther') 32bit built on Apr 18 2014 18:15:44
Writing library : libebml v1.3.0 + libmatroska v1.4.1
Cover : Yes
Attachments : cover2.pngVideo
ID : 1
Format : AVC
Format/Info : Advanced Video Codec
Format profile : High@L4
Format settings : CABAC / 5 Ref Frames
Format settings, CABAC : Yes
Format settings, ReFrames : 5 frames
Codec ID : V_MPEG4/ISO/AVC
Duration : 1 h 43 min
Bit rate : 4 453 kb/s
Width : 1 908 pixels
Height : 792 pixels
Display aspect ratio : 2.40:1
Frame rate mode : Constant
Frame rate : 23.976 (24000/1001) FPS
Color space : YUV
Chroma subsampling : 4:2:0
Bit depth : 8 bits
Scan type : Progressive
Bits/(Pixel*Frame) : 0.123
Stream size : 3.21 GiB (90%)
Title : GAME_2018_WEB_DL_1080p-BLUEBIRD
Language : English
Default : Yes
Forced : No
Color range : Limited
Color primaries : BT.709
Transfer characteristics : BT.709
Matrix coefficients : BT.709Audio
ID : 2
Format : AC-3
Format/Info : Audio Coding 3
Codec ID : A_AC3
Duration : 1 h 43 min
Bit rate mode : Constant
Bit rate : 384 kb/s
Channel(s) : 6 channels
Channel positions : Front: L C R, Side: L R, LFE
Sampling rate : 48.0 kHz
Frame rate : 31.250 FPS (1536 SPF)
Bit depth : 16 bits
Compression mode : Lossy
Stream size : 283 MiB (8%)
Title : [ORIGINAL] DD 5.1 @ 384 kbps (iTunes)
Language : Russian
Service kind : Complete Main
Default : Yes
Forced : NoMenu
00:00:00.000 : en:1
00:01:37.000 : en:2
00:12:05.000 : en:3
00:22:51.000 : en:4
00:33:21.000 : en:5
00:42:39.000 : en:6
00:50:17.000 : en:7
01:02:44.000 : en:8
01:14:17.000 : en:9
01:24:32.000 : en:10
01:32:58.000 : en:11
01:40:09.000 : en:12

Скриншоты


Чтобы скачать этот контент, Вам необходимо:
1. Скачать и установить торрент-клиент [клик для Windows], (для мобильного найдите на Play Маркет).
2. Кликнуть по [Скачать]


Внимание.
Если проверка ВЫ НЕ РОБОТ - не работает, значит Вы используете устаревший браузер.
Установите актуальный браузер и повторно кликните по [Скачать]
Безопасность: торрент-клиент разрешён АВ Касперского.

[asmlocator.ru].t653740.torrent 
Торрент: Зарегистрирован [ 2019-07-27 15:10 ] · 65A7A3E94D16C6845D19B1E98CEEB359C422DC47

Скачать .torrent

Скачать

18 KB

Статус: проверено
Скачан: 1 раз
Размер: 3,56 GB
terms.php
[Профиль] [ЛС]
Показать сообщения:    
Ответить на тему

Текущее время: 14-Окт 08:10

Часовой пояс: UTC ± 0



Вы не можете начинать темы
Вы не можете отвечать на сообщения
Вы не можете редактировать свои сообщения
Вы не можете удалять свои сообщения
Вы не можете голосовать в опросах
Вы не можете прикреплять файлы к сообщениям
Вы можете скачивать файлы
Верим фактам, а не вранью Путина! Факт, что Правительство ведёт Россию к истреблению.
Так как численность населения падает, даже не смотря на приток эмигрантов!
Русская нация вымирает и вырождается, смешиваясь с эмигрантами!
Факт, что военных и граждан предприятий заставляют голосовать за партию Единая Россия и Путина
ПОД СТРАХОМ УВОЛЬНЕНИЯ!
Нам не нужно Правительство, блокирующее личную жизнь, интернет, нарушающее сохранность данных.
Все эти действия финансируются за счёт народа!