Выход толстого дракона / Enter the Fat Dragon / Fei Lung gwoh gong (Саммо Хунг / Sammo Hung) [1978, Гонконг, боевик, комедия, BDRip 1080p] VO (SHaMaN) + VO (Самоделкин) + Sub Rus, Eng + Original Zho

Ответить на тему
Статистика раздачи
Размер:  8.37 GB   |    Зарегистрирован:  5 месяцев 25 дней   |    Скачан:  0 раз

Полного источника не было: Никогда

 
   
 
 
Автор Сообщение

star21 ®

Пол: Женский

Стаж: 4 года 2 месяца

Сообщений: 551946

Откуда: Екатеринбург

Создавать темы 27-Июл-2019 15:10

[Цитировать]

Выход толстого дракона / Enter the Fat Dragon / Fei Lung gwoh gong Страна: Гонконг
Студия: Fung Ming Motion Picture Co., Ltd.
Жанр: боевик, комедия
Год выпуска: 1978
Продолжительность: 01:32:33Перевод 1: Одноголосый закадровый SHaMaN
Перевод 2: Одноголосый закадровый Самоделкин
Субтитры: русские Владимир Петрушин, английские
Оригинальная аудиодорожка: китайскийРежиссер: Саммо Хунг / Sammo HungВ ролях: Саммо Хунг, Леунг Ка-Ян, Ли Хой Сан, Лам Чинг Йинг, Юэнь Бьяо, Фунг Хак Он, Манг ХойОписание: А Лунг (Саммо Хунг) - простой паренек, работающий на свиноферме и постоянно занимающийся боевыми искусствами, чтобы походить на своего кумира - Брюса Ли. Когда его дяде (владельцу забегаловки) понадобилась помощь, племяша посылают в большой город, чтобы помочь. По прибытии в город, А Лунг понимает, что жизнь в нем не так легка, как кажется. Но зато теперь, можно практиковать свое кунг-фу на отморозках и бандитах, а не на свиньях...Доп. информация:
BDRip найден в сети. По всей видимости это рип с немецкого издания. Отличается от версии, раздаваемой здесь на DVD и DVDRip предыдущими релизерами тем, что в ней отсутствуют два незначительных эпизода, зато есть некоторые добавленные. В частности финальная схватка с Леунг Ка-Яном более полная, чем на DVD с вшитыми сабами.
Вырезанные эпизоды: https://drive.google.com/open?id=1HOd6SsuhCPXn5SFGqxbDh_DSR4HR8uPl
Русские субтитры взяты из раздачи Public Enemy ((( и подогнаны мною под этот релиз.
Фильм я озвучил по этим субтитрам, внеся по ходу дела кое какие коррективы в перевод
Дорожку с переводом Самоделкина я взял с пиратского DVD, купленного когда-то где-то по случаю и также подогнал к этой версии. Сэмпл: https://yadi.sk/i/wch7JQwYYfUzqwТип релиза: BDRip 1080p
Контейнер: MKVВидео: MPEG4 Video AVC (H264) / 1920x764 / 24fps / Bit rate: 12.0 Mb/s / High@L4.1
Аудио 1: Dolby AC3 48000Hz stereo 384kbps (Одноголосый, закадровый - SHaMaN)
Аудио 2: Dolby AC3 48000Hz stereo 192kbps (Одноголосый, закадровый - Самоделкин)
Аудио 3: DTS 48000Hz stereo 384kbps (Китайский, Кантонский)
Формат субтитров: softsub (SRT) Rus, Eng (PGS)

MediaInfo

GeneralUnique ID                   : 193088387717049323851183558259492551279 (0x9143788527795D5920CBFCD162F07A6F)Complete name               : C:\Enter.the.Fat.Dragon.1978.BluRay.1080p.mkvFormat                      : MatroskaFormat version              : Version 4File size                   : 8.37 GiBDuration                    : 1 h 32 minOverall bit rate            : 12.9 Mb/sMovie name                  : Enter.the.Fat.Dragon.1978.BluRay.1080pEncoded date                : UTC 2019-06-19 13:47:30Writing application         : mkvmerge v34.0.0 ('Sight and Seen') 32-bitWriting library             : libebml v1.3.7 + libmatroska v1.5.0VideoID                          : 1Format                      : AVCFormat/Info                 : Advanced Video CodecFormat profile              : High@L4.1Format settings             : CABAC / 4 Ref FramesFormat settings, CABAC      : YesFormat settings, ReFrames   : 4 framesCodec ID                    : V_MPEG4/ISO/AVCDuration                    : 1 h 32 minBit rate                    : 12.0 Mb/sWidth                       : 1 920 pixelsHeight                      : 764 pixelsDisplay aspect ratio        : 2.513Frame rate mode             : ConstantFrame rate                  : 24.000 FPSColor space                 : YUVChroma subsampling          : 4:2:0Bit depth                   : 8 bitsScan type                   : ProgressiveBits/(Pixel*Frame)          : 0.340Stream size                 : 7.74 GiB (92%)Title                       : Enter.the.Fat.Dragon.1978.BluRay.1080pWriting library             : x264 core 157 r2935 545de2fEncoding settings           : cabac=1 / ref=3 / deblock=1:-1:-1 / analyse=0x3:0x113 / me=hex / subme=7 / psy=1 / psy_rd=1.00:0.15 / mixed_ref=1 / me_range=16 / chroma_me=1 / trellis=1 / 8x8dct=1 / cqm=0 / deadzone=21,11 / fast_pskip=1 / chroma_qp_offset=-3 / threads=12 / lookahead_threads=2 / sliced_threads=0 / nr=0 / decimate=1 / interlaced=0 / bluray_compat=0 / constrained_intra=0 / bframes=3 / b_pyramid=2 / b_adapt=1 / b_bias=0 / direct=1 / weightb=1 / open_gop=0 / weightp=2 / keyint=240 / keyint_min=24 / scenecut=40 / intra_refresh=0 / rc_lookahead=40 / rc=crf / mbtree=1 / crf=20.0 / qcomp=0.60 / qpmin=0 / qpmax=69 / qpstep=4 / vbv_maxrate=62500 / vbv_bufsize=78125 / crf_max=0.0 / nal_hrd=none / filler=0 / ip_ratio=1.40 / aq=1:1.00Language                    : ChineseDefault                     : YesForced                      : NoColor range                 : LimitedColor primaries             : BT.709Transfer characteristics    : BT.709Matrix coefficients         : BT.709Audio #1ID                          : 2Format                      : AC-3Format/Info                 : Audio Coding 3Commercial name             : Dolby DigitalCodec ID                    : A_AC3Duration                    : 1 h 32 minBit rate mode               : ConstantBit rate                    : 384 kb/sChannel(s)                  : 2 channelsChannel layout              : L RSampling rate               : 48.0 kHzFrame rate                  : 31.250 FPS (1536 SPF)Bit depth                   : 16 bitsCompression mode            : LossyStream size                 : 254 MiB (3%)Title                       : SHaMaNLanguage                    : RussianService kind                : Complete MainDefault                     : YesForced                      : NoAudio #2ID                          : 3Format                      : AC-3Format/Info                 : Audio Coding 3Commercial name             : Dolby DigitalCodec ID                    : A_AC3Duration                    : 1 h 32 minBit rate mode               : ConstantBit rate                    : 192 kb/sChannel(s)                  : 2 channelsChannel layout              : L RSampling rate               : 48.0 kHzFrame rate                  : 31.250 FPS (1536 SPF)Bit depth                   : 16 bitsCompression mode            : LossyStream size                 : 127 MiB (1%)Title                       : СамоделкинLanguage                    : RussianService kind                : Complete MainDefault                     : NoForced                      : NoAudio #3ID                          : 4Format                      : DTSFormat/Info                 : Digital Theater SystemsCodec ID                    : A_DTSDuration                    : 1 h 32 minBit rate mode               : ConstantBit rate                    : 384 kb/sChannel(s)                  : 2 channelsChannel layout              : L RSampling rate               : 48.0 kHzFrame rate                  : 93.750 FPS (512 SPF)Bit depth                   : 16 bitsCompression mode            : LossyStream size                 : 254 MiB (3%)Title                       : StereoLanguage                    : ChineseDefault                     : NoForced                      : NoText #1ID                          : 5Format                      : UTF-8Codec ID                    : S_TEXT/UTF8Codec ID/Info               : UTF-8 Plain TextDuration                    : 1 h 31 minBit rate                    : 53 b/sCount of elements           : 845Stream size                 : 36.1 KiB (0%)Title                       : Владимир ПетрушинLanguage                    : RussianDefault                     : NoForced                      : NoText #2ID                          : 6Format                      : PGSMuxing mode                 : zlibCodec ID                    : S_HDMV/PGSCodec ID/Info               : Picture based subtitle format used on BDs/HD-DVDsDuration                    : 1 h 31 minBit rate                    : 27.1 kb/sCount of elements           : 1621Stream size                 : 17.8 MiB (0%)Language                    : EnglishDefault                     : NoForced                      : NoMenu00:00:00.000                : :Chapter 100:08:08.750                : :Chapter 200:16:19.167                : :Chapter 300:23:41.292                : :Chapter 400:33:03.792                : :Chapter 500:39:55.333                : :Chapter 600:49:59.125                : :Chapter 701:01:27.125                : :Chapter 801:06:13.875                : :Chapter 901:12:35.250                : :Chapter 1001:18:50.875                : :Chapter 1101:24:40.417                : :Chapter 12

Скриншоты

Чтобы скачать этот контент, Вам необходимо:
1. Скачать и установить торрент-клиент [клик для Windows], (для мобильного найдите на Play Маркет).
2. Кликнуть по [Скачать]


Внимание.
Если проверка ВЫ НЕ РОБОТ - не работает, значит Вы используете устаревший браузер.
Установите актуальный браузер и повторно кликните по [Скачать]
Безопасность: торрент-клиент разрешён АВ Касперского.

[mail.asmlocator.ru].t653737.torrent 
Торрент: Зарегистрирован [ 2019-07-27 15:10 ] · 138FB6A0632CFE40EF035FC30E23379080AB7E66

Скачать .torrent

Скачать

21 KB

Статус: проверено
Скачан: 0 раз
Размер: 8.37 GB
terms.php
[Профиль] [ЛС]
Показать сообщения:    
Ответить на тему

Текущее время: 21-Янв 23:09

Часовой пояс: UTC ± 0



Вы не можете начинать темы
Вы не можете отвечать на сообщения
Вы не можете редактировать свои сообщения
Вы не можете удалять свои сообщения
Вы не можете голосовать в опросах
Вы не можете прикреплять файлы к сообщениям
Вы можете скачивать файлы
Верим фактам, а не вранью Путина! Факт, что Правительство ведёт Россию к истреблению.
Так как численность населения падает, даже не смотря на приток эмигрантов!
Русская нация вымирает и вырождается, смешиваясь с эмигрантами!
Факт, что военных и граждан предприятий заставляют голосовать за партию Единая Россия и Путина
ПОД СТРАХОМ УВОЛЬНЕНИЯ!
Нам не нужно Правительство, блокирующее личную жизнь, интернет, нарушающее сохранность данных.
Все эти действия финансируются за счёт народа!