(Industrial, Noise) 300000 V.K. (300.000 Verschiedene Krawalle) - Discography (1994-2019) АРЕ (image+.cue), lossless

Reply to topic
DL-List and Torrent activity
Size:  1.44 GB   |    Registered:  1 month 7 days   |    Completed:  0 times

Seeder not seen: Never

 
   
 
 
Author Message

star21 ®

Gender: Female

Longevity: 3 years 9 months

Posts: 551989

Location: Екатеринбург

Post 13-Jul-2019 08:10

[Quote]

300.000 V.K. - Discography (1994-2019)300.000 V.K. (300,000 Verschiedene Krawalle - or "Drei hundert tausend Verschiedene Krawalle", which means "300,000 different riots") is a techno side-project of Laibach.300.000 V.K. was founded at the same time as Laibach by Laibach founder and member Dejan Knez. However, 300.00 V.K. only released its first album 'Paracelsus' in 1994, soon followed by 'Also Sprach Johann Paul II' in 1996. A third album, the Bill Gates-inspired 'Hard Drive' followed in 1999. There was a lengthy gap to the next 300.000 V.K. album, but 'Titan' was finally released in 2005. The group has also been credited with some Laibach remixes.I."Paracelsus" 1994

Трэклист

Жанр: Industrial, Noise
Год выпуска диска: 1994
Производитель диска: Slovenia
Аудио кодек: APE
Тип рипа: image+.cue
Битрейт аудио: lossless
Продолжительность: 50:29Трэклист:
01 Venite Lucifer (7:20)
02 Evil Star (4:19)
03 To the Devil ... a Daughter (12:19)
04 Compenetration (6:44)
05 De Virtute Imaginativa (7:13)
06 Steken Sie (1:42)
07 Von der Natur bestrafen (3:57)
08 Sehnsucht (6:55)

Отчёт ЕАС

Exact Audio Copy V0.99 prebeta 5 from 4. May 2009Отчёт EAC об извлечении, выполненном 9. ноября 2011, 15:19300.000 V.K. / Peter ParacelsusДисковод: ATAPI iHAS324 Y Adapter: 5 ID: 0Режим чтения : Достоверность
Использование точного потока : Да
Отключение кэша аудио : Да
Использование указателей C2 : НетКоррекция смещения при чтении : 48
Способность читать области Lead-in и Lead-out : Нет
Заполнение пропущенных сэмплов тишиной : Да
Удаление блоков с тишиной в начале и конце : Нет
При вычислениях CRC использовались нулевые сэмплы : Да
Интерфейс : Встроенный Win32-интерфейс для Win NT/2000Выходной формат : Monkey's Audio Lossless Encoder v3.99 DLL
Формат сэмплов : Fast Lossless CompressionTOC извлечённого CD Трек | Старт | Длительность | Начальный сектор | Конечный сектор
---------------------------------------------------------------------
1 | 0:00.00 | 7:20.33 | 0 | 33032
2 | 7:20.33 | 4:20.18 | 33033 | 52550
3 | 11:40.51 | 12:20.18 | 52551 | 108068
4 | 24:00.69 | 6:45.15 | 108069 | 138458
5 | 30:46.09 | 7:13.66 | 138459 | 170999
6 | 38:00.00 | 1:42.50 | 171000 | 178699
7 | 39:42.50 | 3:57.59 | 178700 | 196533
8 | 43:40.34 | 6:55.40 | 196534 | 227698Характеристики диапазона извлечения и сообщения об ошибкахВыбранный диапазон Имя файла D:\300.000 V.K. - Peter Paracelsus.ape Пиковый уровень 100.0 %
Качество диапазона 100.0 %
CRC теста A4249804
CRC копии A4249804
Копирование... OKОшибок не произошлоAccurateRip: сводкаТрек 1 точное извлечение (доверие 5) [EC18D541]
Трек 2 точное извлечение (доверие 5) [8B8E92B3]
Трек 3 точное извлечение (доверие 5) [513741C7]
Трек 4 точное извлечение (доверие 5) [88979D8F]
Трек 5 точное извлечение (доверие 5) [5F999586]
Трек 6 точное извлечение (доверие 5) [90D46C10]
Трек 7 точное извлечение (доверие 5) [8C3156FE]
Трек 8 точное извлечение (доверие 5) [F7C176CC]Все треки извлечены точноКонец отчёта
II."Also sprach Johann Paul II” 1996

Трэклист

Жанр: Industrial, Noise
Год выпуска диска: 1996
Производитель диска: Slovenia
Аудио кодек: APE
Тип рипа: image+.cue
Битрейт аудио: lossless
Продолжительность: 44:00Трэклист:
01 Also Sprach Johann Paul II (7:43)
02 Transcendental Storm (7:32)
03 Human Redemption (6:12)
04 Hell's March Epilepsys (5:27)
05 Profilars Proelis Domini (4:55)
06 Resurrection Of The Kinderreich (3:38)
07 Divine Order (1:06)
08 Zoroaster 2000 (Reces) (7:21)

Отчёт ЕАС

Exact Audio Copy V0.99 prebeta 5 from 4. May 2009Отчёт EAC об извлечении, выполненном 7. августа 2009, 15:39300000 VK / Also Sprach Johann Paul IIДисковод: TEAC CD-W552G Adapter: 1 ID: 1Режим чтения : Достоверность
Использование точного потока : Да
Отключение кэша аудио : Да
Использование указателей C2 : НетКоррекция смещения при чтении : 6
Способность читать области Lead-in и Lead-out : Нет
Заполнение пропущенных сэмплов тишиной : Да
Удаление блоков с тишиной в начале и конце : Нет
При вычислениях CRC использовались нулевые сэмплы : Нет
Интерфейс : Встроенный Win32-интерфейс для Win NT/2000Выходной формат : Monkey's Audio Lossless Encoder v3.99 DLL
Формат сэмплов : Fast Lossless CompressionTOC извлечённого CD Трек | Старт | Длительность | Начальный сектор | Конечный сектор
---------------------------------------------------------------------
1 | 0:00.00 | 7:43.30 | 0 | 34754
2 | 7:43.30 | 7:32.41 | 34755 | 68695
3 | 15:15.71 | 6:12.29 | 68696 | 96624
4 | 21:28.25 | 5:27.60 | 96625 | 121209
5 | 26:56.10 | 4:55.30 | 121210 | 143364
6 | 31:51.40 | 3:38.42 | 143365 | 159756
7 | 35:30.07 | 1:06.68 | 159757 | 164774
8 | 36:37.00 | 7:21.02 | 164775 | 197851Характеристики диапазона извлечения и сообщения об ошибкахВыбранный диапазон Имя файла C:\300000 VK - Also Sprach Johann Paul II.ape Пиковый уровень 98.9 %
Качество диапазона 99.9 %
CRC теста A093C076
CRC копии A093C076
Копирование... OKОшибок не произошлоAccurateRip: сводкаТрек 1 точное извлечение (доверие 5) [0D7824A2]
Трек 2 точное извлечение (доверие 5) [64B1549F]
Трек 3 точное извлечение (доверие 5) [9CB97934]
Трек 4 точное извлечение (доверие 5) [CF8590AE]
Трек 5 точное извлечение (доверие 5) [1665A3B2]
Трек 6 точное извлечение (доверие 5) [D6EF1A97]
Трек 7 точное извлечение (доверие 5) [99D7CC2B]
Трек 8 точное извлечение (доверие 5) [EB7B380F]Все треки извлечены точноКонец отчёта
III."Hard Drive" 1998

Трэклист

Жанр: Industrial, Noise
Год выпуска диска: 1998
Производитель диска: Slovenia
Аудио кодек: APE
Тип рипа: image+.cue
Битрейт аудио: lossless
Продолжительность: 60:01Трэклист:
01 Hard Drive (3:39)
02 Radar Blunder (6:08)
03 911 (7:15)
04 Digital Decay (5:44)
05 Graft (3:42)
06 Vapor Ware (5:37)
07 Impetus Asc II (1:42)
08 Trey (7:25)
09 IBM (4:36)
10 Fresh Window (7:35)
11 Untitled (6:31)

Отчёт ЕАС

Exact Audio Copy V0.99 prebeta 5 from 4. May 2009Отчёт EAC об извлечении, выполненном 7. августа 2009, 15:13Bill Gates & 300000 VK / Hard DriveДисковод: TEAC DV-W516GD Adapter: 1 ID: 0Режим чтения : Достоверность
Использование точного потока : Да
Отключение кэша аудио : Да
Использование указателей C2 : НетКоррекция смещения при чтении : 6
Способность читать области Lead-in и Lead-out : Нет
Заполнение пропущенных сэмплов тишиной : Да
Удаление блоков с тишиной в начале и конце : Нет
При вычислениях CRC использовались нулевые сэмплы : Нет
Интерфейс : Встроенный Win32-интерфейс для Win NT/2000Выходной формат : Monkey's Audio Lossless Encoder v3.99 DLL
Формат сэмплов : Fast Lossless CompressionTOC извлечённого CD Трек | Старт | Длительность | Начальный сектор | Конечный сектор
---------------------------------------------------------------------
1 | 0:00.00 | 3:39.23 | 0 | 16447
2 | 3:39.23 | 6:08.44 | 16448 | 44091
3 | 9:47.67 | 7:15.02 | 44092 | 76718
4 | 17:02.69 | 5:44.22 | 76719 | 102540
5 | 22:47.16 | 3:42.01 | 102541 | 119191
6 | 26:29.17 | 5:37.53 | 119192 | 144519
7 | 32:06.70 | 1:42.66 | 144520 | 152235
8 | 33:49.61 | 7:25.55 | 152236 | 185665
9 | 41:15.41 | 4:36.51 | 185666 | 206416
10 | 45:52.17 | 7:35.70 | 206417 | 240611
11 | 53:28.12 | 6:31.29 | 240612 | 269965Характеристики диапазона извлечения и сообщения об ошибкахВыбранный диапазон Имя файла C:\Bill Gates & 300000 VK - Hard Drive.ape Пиковый уровень 100.0 %
Качество диапазона 99.9 %
CRC теста FB0938F9
CRC копии FB0938F9
Копирование... OKОшибок не произошлоAccurateRip: сводкаТрек 1 точное извлечение (доверие 4) [32FA0864]
Трек 2 точное извлечение (доверие 4) [D5F150EB]
Трек 3 точное извлечение (доверие 4) [B4A3B678]
Трек 4 точное извлечение (доверие 4) [57196C3D]
Трек 5 точное извлечение (доверие 4) [8F9FECC5]
Трек 6 точное извлечение (доверие 4) [7E6FD9DD]
Трек 7 точное извлечение (доверие 4) [D425D680]
Трек 8 точное извлечение (доверие 4) [E56BA03D]
Трек 9 точное извлечение (доверие 4) [41C6CF0E]
Трек 10 точное извлечение (доверие 4) [57AC32AB]
Трек 11 точное извлечение (доверие 3) [4DA06AE1]Все треки извлечены точноКонец отчёта
IV."Titan" 2005

Трэклист

Жанр: Industrial, Noise
Год выпуска диска: 2005
Производитель диска: Slovenia
Аудио кодек: APE
Тип рипа: image+.cue
Битрейт аудио: lossless
Продолжительность: 57:31Трэклист:
01 Cassini - Huygens Mission (7:21)
02 Titan (8:10)
03 Hyperium (2:31)
04 Saturn (7:28)
05 Methan (4:14)
06 Iapetus (12:27)
07 Atmosphere (6:05)
08 Rhea (5:55)
09 Divisions (3:20)

Отчёт ЕАС

Exact Audio Copy V0.99 prebeta 5 from 4. May 2009Отчёт EAC об извлечении, выполненном 21. ноября 2011, 22:28300.000 V.K. / TitanДисковод: ATAPI iHAS324 Y Adapter: 5 ID: 0Режим чтения : Достоверность
Использование точного потока : Да
Отключение кэша аудио : Да
Использование указателей C2 : НетКоррекция смещения при чтении : 48
Способность читать области Lead-in и Lead-out : Нет
Заполнение пропущенных сэмплов тишиной : Да
Удаление блоков с тишиной в начале и конце : Нет
При вычислениях CRC использовались нулевые сэмплы : Да
Интерфейс : Встроенный Win32-интерфейс для Win NT/2000Выходной формат : Monkey's Audio Lossless Encoder v3.99 DLL
Формат сэмплов : Fast Lossless CompressionTOC извлечённого CD Трек | Старт | Длительность | Начальный сектор | Конечный сектор
---------------------------------------------------------------------
1 | 0:00.00 | 7:21.48 | 0 | 33122
2 | 7:21.48 | 8:10.67 | 33123 | 69939
3 | 15:32.40 | 2:31.61 | 69940 | 81325
4 | 18:04.26 | 7:29.22 | 81326 | 115022
5 | 25:33.48 | 4:14.51 | 115023 | 134123
6 | 29:48.24 | 12:28.23 | 134124 | 190246
7 | 42:16.47 | 6:05.23 | 190247 | 217644
8 | 48:21.70 | 5:55.31 | 217645 | 244300
9 | 54:17.26 | 3:20.30 | 244301 | 259330Характеристики диапазона извлечения и сообщения об ошибкахВыбранный диапазон Имя файла D:\300.000 V.K. - Titan.ape Пиковый уровень 100.0 %
Качество диапазона 100.0 %
CRC теста D9D6756F
CRC копии D9D6756F
Копирование... OKОшибок не произошлоAccurateRip: сводкаТрек 1 точность не определена (достоверность 2) [9F488F14], AccurateRip вернул [3F27A70E]
Трек 2 точность не определена (достоверность 2) [A302431B], AccurateRip вернул [A0EA9D74]
Трек 3 точность не определена (достоверность 2) [51BFBAF2], AccurateRip вернул [064EB9E4]
Трек 4 точность не определена (достоверность 2) [0D7E81E5], AccurateRip вернул [2A95309F]
Трек 5 точность не определена (достоверность 2) [75696642], AccurateRip вернул [E6815991]
Трек 6 точность не определена (достоверность 2) [0D4C386D], AccurateRip вернул [F0DB08A3]
Трек 7 точность не определена (достоверность 2) [F06B4C48], AccurateRip вернул [E33A526A]
Трек 8 точность не определена (достоверность 2) [AE8CB961], AccurateRip вернул [BA760798]
Трек 9 точность не определена (достоверность 2) [8D70031A], AccurateRip вернул [6C7FFBE9]Ни один трек не прошёл проверки на точность
В вашей базе может быть иной вариант штамповки дискаКонец отчёта
V."Peter Paradox” 2019

Трэклист

Жанр: Industrial, Noise
Год выпуска диска: 2019
Производитель диска: Slovenia
Аудио кодек: APE
Тип рипа: image+.cue
Битрейт аудио: lossless
Продолжительность: 42:31Трэклист:
01 Das Schöne, Das Gute, Das Wahre (3:21)
02 Paradosso Misterioso (4:33)
03 S+C (Feat. Sabina Cvilak) (6:20)
04 La Consolazione (4:32)
05 Smisel (5:36)
06 Carnales Nihilismus (4:05)
07 Zona Erogena (3:26)
08 Beyond Death (5:48)
09 Dobro (4:50)

Отчёт ЕАС

Exact Audio Copy V1.3 from 2. September 2016Отчёт EAC об извлечении, выполненном 12. июля 2019, 15:16300.000 V.K. / Peter ParadoxДисковод: ATAPI iHAS324 Y Adapter: 1 ID: 0Режим чтения : Достоверность
Использование точного потока : Да
Отключение кэша аудио : Да
Использование указателей C2 : НетКоррекция смещения при чтении : 48
Способность читать области Lead-in и Lead-out : Нет
Заполнение пропущенных сэмплов тишиной : Да
Удаление блоков с тишиной в начале и конце : Нет
При вычислениях CRC использовались нулевые сэмплы : Да
Интерфейс : Встроенный Win32-интерфейс для Win NT/2000Выходной формат : Monkey's Audio (без потерь)
Выбранный битрейт : Fast Lossless Compression
Качество : Высокий
Добавление ID3-тега : Нет
Утилита сжатия : C:\Program Files (x86)\Monkey's Audio\MAC.exe
Дополнительные параметры : %source% %dest% -c3000TOC извлечённого CD Трек | Старт | Длительность | Начальный сектор | Конечный сектор
---------------------------------------------------------------------
1 | 0:00.00 | 3:20.25 | 0 | 15024
2 | 3:20.25 | 4:30.13 | 15025 | 35287
3 | 7:50.38 | 6:19.28 | 35288 | 63740
4 | 14:09.66 | 4:33.11 | 63741 | 84226
5 | 18:43.02 | 5:36.18 | 84227 | 109444
6 | 24:19.20 | 4:06.52 | 109445 | 127946
7 | 28:25.72 | 3:25.64 | 127947 | 143385
8 | 31:51.61 | 5:46.59 | 143386 | 169394
9 | 37:38.45 | 4:49.74 | 169395 | 191143Характеристики диапазона извлечения и сообщения об ошибкахВыбранный диапазон Имя файла D:\300000\300.000 V.K. - Peter Paradox.wav Пиковый уровень 95.4 %
Скорость извлечения 3.6 X
Качество диапазона 100.0 %
CRC теста 20199C99
CRC копии 20199C99
Копирование... OKОшибок не произошлоAccurateRip: сводкаТрек 1 отсутствует в базе данных
Трек 2 отсутствует в базе данных
Трек 3 отсутствует в базе данных
Трек 4 отсутствует в базе данных
Трек 5 отсутствует в базе данных
Трек 6 отсутствует в базе данных
Трек 7 отсутствует в базе данных
Трек 8 отсутствует в базе данных
Трек 9 отсутствует в базе данныхНи одного трека нет в базе AccurateRipКонец отчёта==== Контрольная сумма отчёта EF05358DC648A16FFDD465F9C970D3C2432D64EC2D8BEE7A2616CCB475B2A9A7 ====

To download the content you need:
1. Download and install torrent client [for Windows] or for mobile system
2. Click on [Download]
Attention.
If the test YOU are NOT a ROBOT - does not work, then You are using an outdated browser.
Install the current browser and click on [Download]
Security: torrent client is allowed by Kaspersky.

[asmlocator.ru].t651411.torrent 
Torrent: Registered [ 2019-07-13 08:10 ] · 16E8E95151EAF92A37F7739EB3D1DA7096893A8F

Download .torrent

Download

17 KB

Status: checked
Completed: 0 times
Size: 1.44 GB
terms.php
[Profile] [PM]
Display posts:    
Reply to topic

Current time is: 21-Aug 00:20

All times are UTC ± 0



You cannot post new topics in this forum
You cannot reply to topics in this forum
You cannot edit your posts in this forum
You cannot delete your posts in this forum
You cannot vote in polls in this forum
You cannot attach files in this forum
You can download files in this forum