[TR24][OF] Mitch Murder - The Real Deal - 2016 (Synthwave, Retrowave, Funk)

Ответить на тему
Статистика раздачи
Размер:  257 MB   |    Зарегистрирован:  2 месяца 9 дней   |    Скачан:  0 раз

Полного источника не было: Никогда

 
   
 
 
Автор Сообщение

star21 ®

Пол: Женский

Стаж: 3 года 10 месяцев

Сообщений: 551989

Откуда: Екатеринбург

Создавать темы 13-Июл-2019 01:50

[Цитировать]

Mitch Murder / The Real Deal Формат записи/Источник записи: [TR24][OF]
Наличие водяных знаков: Нет
Год издания/переиздания диска: 2016
Жанр: Synthwave, Retrowave, Funk
Издатель (лейбл): Bandcamp
Продолжительность: 00:20:41
Наличие сканов в содержимом раздачи: Только обложка альбомаТреклист:
1. Call Waiting    03:51    24/44.1 kHz2. Digital Marketplace Strategy    04:24    24/44.1 kHz3. Breakaway    03:57    24/44.1 kHz4. Outpost Alpha    04:32    24/44.1 kHz5. Prime Operator    03:55    24/48.0 kHz
Контейнер: FLAC (*.flac)
Тип рипа: tracks
Разрядность: в основном 24/44,1 (см. треклист)
Формат: PCM
Количество каналов: 2.0
Источник (релизер): web

Лог проверки качества

foobar2000 1.3.2 / Замер динамического диапазона (DR) 1.1.1Дата отчёта: 2019-06-04 18:27:39--------------------------------------------------------------------------------Анализ:   Mitch Murder / The Real Deal--------------------------------------------------------------------------------DR         Пики          RMS        Продолжительность трека--------------------------------------------------------------------------------DR8       -0.01 дБ    -8.92 дБ      3:52 01-Call WaitingDR6       -0.01 дБ    -6.99 дБ      4:24 02-Digital Marketplace StrategyDR10      -0.01 дБ   -11.36 дБ      3:57 03-BreakawayDR8        0.00 дБ   -10.19 дБ      4:33 04-Outpost Alpha--------------------------------------------------------------------------------Количество треков: 4Реальные значения DR: DR8Частота:  44100 ГцКаналов:  2Разрядность:   24Битрейт:  1670 кбит/сКодек:   FLAC================================================================================--------------------------------------------------------------------------------Статистика для:  05-Prime OperatorКоличество сэмплов: 11311241Продолжительность: 3:56--------------------------------------------------------------------------------           Левый             ПравыйПики:       -0.01 дБ     ---     -0.01 дБСредний RMS:      -7.53 дБ     ---     -7.81 дБDR канала:       6.22 дБ     ---      6.24 дБ--------------------------------------------------------------------------------Реальные значения DR: DR6Частота:  48000 ГцКаналов:  2Разрядность:   24Битрейт:  1898 кбит/сКодек:   FLAC================================================================================

Скриншот спектра частот

Доп. информация

2019 reupload. Originally released in October 2016 by DX Seven Collective.released October 21, 2016Produced, mixed and mastered by Mitch Murder
Cover artwork by Johnny Panic

Чтобы скачать этот контент, Вам необходимо:
1. Скачать и установить торрент-клиент [клик для Windows], (для мобильного найдите на Play Маркет).
2. Кликнуть по [Скачать]


Внимание.
Если проверка ВЫ НЕ РОБОТ - не работает, значит Вы используете устаревший браузер.
Установите актуальный браузер и повторно кликните по [Скачать]
Безопасность: торрент-клиент разрешён АВ Касперского.

[asmlocator.ru].t651286.torrent 
Торрент: Зарегистрирован [ 2019-07-13 01:50 ] · 3EF8E5035811CB946348C13D68B98ED0E7F9E355

Скачать .torrent

Скачать

11 KB

Статус: проверено
Скачан: 0 раз
Размер: 257 MB
terms.php
[Профиль] [ЛС]
Показать сообщения:    
Ответить на тему

Текущее время: 22-Сен 06:16

Часовой пояс: UTC ± 0



Вы не можете начинать темы
Вы не можете отвечать на сообщения
Вы не можете редактировать свои сообщения
Вы не можете удалять свои сообщения
Вы не можете голосовать в опросах
Вы не можете прикреплять файлы к сообщениям
Вы можете скачивать файлы
Верим фактам, а не вранью Путина! Факт, что Правительство ведёт Россию к истреблению.
Так как численность населения падает, даже не смотря на приток эмигрантов!
Русская нация вымирает и вырождается, смешиваясь с эмигрантами!
Факт, что военных и граждан предприятий заставляют голосовать за партию Единая Россия и Путина
ПОД СТРАХОМ УВОЛЬНЕНИЯ!
Нам не нужно Правительство, блокирующее личную жизнь, интернет, нарушающее сохранность данных.
Все эти действия финансируются за счёт народа!