[TR24][OF] h][uron (Huron) - in the range of imagination (Album) - 2019 (Ambient, IDM)

Ответить на тему
Статистика раздачи
Размер:  468 MB   |    Зарегистрирован:  2 месяца 6 дней   |    Скачан:  0 раз

Полного источника не было: Никогда

 
   
 
 
Автор Сообщение

star21 ®

Пол: Женский

Стаж: 3 года 10 месяцев

Сообщений: 551989

Откуда: Екатеринбург

Создавать темы 11-Июл-2019 21:20

[Цитировать]

h][uron (Huron) -- in the range of imaginationФормат записи/Источник записи: [TR24][OF]
Наличие водяных знаков: Нет
Издание: Album
Год издания/переиздания диска: 2019
Жанр: Ambient, IDM
Издатель (лейбл): not on label
Продолжительность: 01:11:12
Наличие сканов в содержимом раздачи: Только обложка альбомаТреклист:
01 Hand Glider (07:05)
02 Misty and Cold (10:42)
03 Fallen Tree (09:03)
04 Endless Memorys (10:20)
05 The Path (07:54)
06 The Marsh (07:43)
07 Cloud Machine (09:25)
08 Orange Air (06:48)
09 Blurred (02:06)Контейнер: FLAC (*.flac)
Тип рипа: tracksРазрядность: 24/44,1
Формат: PCM
Количество каналов: 2.0

Лог проверки качества

foobar2000 1.3.9 / Замер динамического диапазона (DR) 1.1.1Дата отчёта:  2019-05-18 20:17:53--------------------------------------------------------------------------------Анализ:   Huron / In the Range of Imagination--------------------------------------------------------------------------------DR         Пики         RMS           Продолжительность трека--------------------------------------------------------------------------------DR10      -0.19 дБ   -13.11 дБ      7:05 01-Hand GliderDR8        0.00 дБ   -10.50 дБ     10:43 02-Misty and ColdDR10       0.00 дБ   -13.12 дБ      9:04 03-Fallen TreeDR7        0.00 дБ   -10.77 дБ     10:21 04-Endless MemorysDR9       -0.20 дБ   -14.04 дБ      7:55 05-The PathDR7       -0.16 дБ   -11.28 дБ      7:44 06-The MarshDR8        0.00 дБ   -10.99 дБ      9:25 07-Cloud MachineDR10      -0.18 дБ   -14.76 дБ      6:49 08-Orange AirDR10      -4.04 дБ   -18.98 дБ      2:07 09-Blurred--------------------------------------------------------------------------------Количество треков: 9Реальные значения DR: DR9Частота:   44100 ГцКаналов:   2Разрядность:   24Битрейт:   791 кбит/сКодек:   FLAC================================================================================

Скриншот спектра частот

Источник (релизер): RED (Bandcamp)

Чтобы скачать этот контент, Вам необходимо:
1. Скачать и установить торрент-клиент [клик для Windows], (для мобильного найдите на Play Маркет).
2. Кликнуть по [Скачать]


Внимание.
Если проверка ВЫ НЕ РОБОТ - не работает, значит Вы используете устаревший браузер.
Установите актуальный браузер и повторно кликните по [Скачать]
Безопасность: торрент-клиент разрешён АВ Касперского.

[asmlocator.ru].t650821.torrent 
Торрент: Зарегистрирован [ 2019-07-11 21:20 ] · CAD2E3A19D2AA454639ECF6B94EAE5154A31C70F

Скачать .torrent

Скачать

19 KB

Статус: проверено
Скачан: 0 раз
Размер: 468 MB
terms.php
[Профиль] [ЛС]
Показать сообщения:    
Ответить на тему

Текущее время: 18-Сен 13:52

Часовой пояс: UTC ± 0



Вы не можете начинать темы
Вы не можете отвечать на сообщения
Вы не можете редактировать свои сообщения
Вы не можете удалять свои сообщения
Вы не можете голосовать в опросах
Вы не можете прикреплять файлы к сообщениям
Вы можете скачивать файлы
Верим фактам, а не вранью Путина! Факт, что Правительство ведёт Россию к истреблению.
Так как численность населения падает, даже не смотря на приток эмигрантов!
Русская нация вымирает и вырождается, смешиваясь с эмигрантами!
Факт, что военных и граждан предприятий заставляют голосовать за партию Единая Россия и Путина
ПОД СТРАХОМ УВОЛЬНЕНИЯ!
Нам не нужно Правительство, блокирующее личную жизнь, интернет, нарушающее сохранность данных.
Все эти действия финансируются за счёт народа!