[TR24][OF] HᗗLFMᗗSSED (Halfmassed) - downer - 2017 (Electronic, Experimental, Trap, Hexx)

Ответить на тему
Статистика раздачи
Размер:  439 MB   |    Зарегистрирован:  2 месяца 9 дней   |    Скачан:  0 раз

Полного источника не было: Никогда

 
   
 
 
Автор Сообщение

star21 ®

Пол: Женский

Стаж: 3 года 10 месяцев

Сообщений: 551989

Откуда: Екатеринбург

Создавать темы 11-Июл-2019 18:10

[Цитировать]

HᗗLFMᗗSSED – downer Формат записи/Источник записи: [TR24][OF]
Наличие водяных знаков: Нет
Год издания/переиздания диска: 2017
Жанр: Electronic, Experimental, Trap, HALFMASSED, Hexx
Издатель (лейбл): hexx 9 Records
Продолжительность: 00:35:59
Наличие сканов в содержимом раздачи: НетТреклист:
1. no
2. sekhmet
3. scum
4. ghrelin
5. finechinagirl
6. cantleaveheralone
7. fleshcage
8. same
9. avertКонтейнер: FLAC (*.flac)
Тип рипа: tracksРазрядность: 24/44,1
Формат: PCM
Количество каналов: 2.0

Лог проверки качества

foobar2000 1.3.17 / Замер динамического диапазона (DR) 1.1.1Дата отчёта:  2019-05-19 10:27:47--------------------------------------------------------------------------------Анализ:   HᗗLFMᗗSSED / downer--------------------------------------------------------------------------------DR         Пики         RMS           Продолжительность трека--------------------------------------------------------------------------------DR8        0.00 дБ   -10.05 дБ      3:00 01-noDR7        0.00 дБ    -9.00 дБ      2:57 02-sekhmetDR6        0.00 дБ    -6.72 дБ      3:33 03-scumDR8       -1.20 дБ   -11.09 дБ      3:47 04-ghrelinDR9        0.00 дБ   -11.56 дБ      5:42 05-finechinagirlDR10       0.00 дБ   -11.19 дБ      4:56 06-cantleaveheraloneDR10       0.00 дБ   -12.60 дБ      3:58 07-fleshcageDR7        0.00 дБ    -9.35 дБ      3:14 08-sameDR9        0.00 дБ   -11.35 дБ      4:54 09-avert--------------------------------------------------------------------------------Количество треков: 9Реальные значения DR: DR8Частота:   44100 ГцКаналов:   2Разрядность:   24Битрейт:   1731 кбит/сКодек:   FLAC================================================================================
Источник (релизер): Собственная покупка https://hexx9records.bandcamp.com/album/downer

Чтобы скачать этот контент, Вам необходимо:
1. Скачать и установить торрент-клиент [клик для Windows], (для мобильного найдите на Play Маркет).
2. Кликнуть по [Скачать]


Внимание.
Если проверка ВЫ НЕ РОБОТ - не работает, значит Вы используете устаревший браузер.
Установите актуальный браузер и повторно кликните по [Скачать]
Безопасность: торрент-клиент разрешён АВ Касперского.

[asmlocator.ru].t650818.torrent 
Торрент: Зарегистрирован [ 2019-07-11 18:10 ] · 4BCE101F554CBF9FC2D104B40E7B019A52AFACCB

Скачать .torrent

Скачать

35 KB

Статус: проверено
Скачан: 0 раз
Размер: 439 MB
terms.php
[Профиль] [ЛС]
Показать сообщения:    
Ответить на тему

Текущее время: 20-Сен 22:57

Часовой пояс: UTC ± 0



Вы не можете начинать темы
Вы не можете отвечать на сообщения
Вы не можете редактировать свои сообщения
Вы не можете удалять свои сообщения
Вы не можете голосовать в опросах
Вы не можете прикреплять файлы к сообщениям
Вы можете скачивать файлы
Верим фактам, а не вранью Путина! Факт, что Правительство ведёт Россию к истреблению.
Так как численность населения падает, даже не смотря на приток эмигрантов!
Русская нация вымирает и вырождается, смешиваясь с эмигрантами!
Факт, что военных и граждан предприятий заставляют голосовать за партию Единая Россия и Путина
ПОД СТРАХОМ УВОЛЬНЕНИЯ!
Нам не нужно Правительство, блокирующее личную жизнь, интернет, нарушающее сохранность данных.
Все эти действия финансируются за счёт народа!