[TR16][OF] Roger Jackson - Power Struggle (Reissue) - 1988/2015 (Electronic, Synth-pop)

Ответить на тему
Статистика раздачи
Размер:  329 MB   |    Зарегистрирован:  2 месяца 9 дней   |    Скачан:  0 раз

Полного источника не было: Никогда

 
   
 
 
Автор Сообщение

star21 ®

Пол: Женский

Стаж: 3 года 10 месяцев

Сообщений: 551989

Откуда: Екатеринбург

Создавать темы 11-Июл-2019 18:10

[Цитировать]

Roger Jackson / Power StruggleФормат записи/Источник записи: [TR16][OF]
Наличие водяных знаков: Нет
Издание: Reissue
Год издания/переиздания диска: 1988/2015
Жанр: Electronic, Synth-pop
Издатель (лейбл): De Wolfe Music/DWCD 0034
Продолжительность: 58:53
Наличие сканов в содержимом раздачи: Только обложка альбомаТреклист:
1 State Of The World A-H
2 Power Struggle A-H
3 The Right Stuff A- G
4 Second Time Around A-H
5 Overground A- H

Полный треклист

1. State of the World (Main Theme) (3:31)
2. State of the World (Main Theme, Without Brass) (3:32)
3. State of the World (Underscore, Piano and Strings) (1:01)
4. State of the World (60 Second Version) (1:06)
5. State of the World (30 Second Version) (0:35)
6. State of the World (20 Second Version) (0:25)
7. State of the World (Sting No.1) (0:12)
8. State of the World (Sting No.2) (0:12)
9. Power Struggle (Main Theme) (3:09)
10. Power Struggle (Main Theme, Without Brass) (3:09)
11. Power Struggle (Underscore, Slower Piano Feature) (2:46)
12. Power Struggle (60 Second Version) (1:07)
13. Power Struggle (30 Second Version) (0:36)
14. Power Struggle (20 Second Version) (0:26)
15. Power Struggle (Sting No.1) (0:10)
16. Power Struggle (Sting No.2) (0:15)
17. The Right Stuff (Main Theme) (3:20)
18. The Right Stuff (Underscore, Slow, Featured Sax) (4:09)
19. The Right Stuff (60 Second Version) (1:06)
20. The Right Stuff (30 Second Version) (0:36)
21. The Right Stuff (20 Second Version) (0:26)
22. The Right Stuff (Sting No.1) (0:12)
23. The Right Stuff (Sting No.2) (0:14)
24. Second Time Around (Main Theme) (3:10)
25. Second Time Around (Main Theme, Without Brass) (3:09)
26. Second Time Around (Underscore, Slow, Atmospheric) (3:20)
27. Second Time Around (60 Second Version) (1:06)
28. Second Time Around (30 Second Version) (0:37)
29. Second Time Around (20 Second Version) (0:26)
30. Second Time Around (Sting No.1) (0:10)
31. Second Time Around (Sting No.2) (0:11)
32. Overground (Main Theme) (3:59)
33. Overground (Main Theme, Without Brass) (4:00)
34. Overground (Underscore) (3:59)
35. Overground (60 Second Version) (1:07)
36. Overground (30 Second Version) (0:37)
37. Overground (20 Second Version) (0:26)
38. Overground (Sting No.1) (0:12)
39. Overground (Sting No.2) (0:09)
Контейнер: FLAC (*.flac)
Тип рипа: tracksРазрядность: 16/48
Формат: PCM
Количество каналов: 2.0
Источник (релизер): dewolfemusic

tech

Лог проверки качества

foobar2000 1.3.10 / Замер динамического диапазона (DR) 1.1.1Дата отчёта:  2019-05-22 12:33:18--------------------------------------------------------------------------------Анализ:   Roger Jackson / Power Struggle--------------------------------------------------------------------------------DR         Пики         RMS           Продолжительность трека--------------------------------------------------------------------------------DR15      -0.56 дБ   -19.24 дБ      3:31 01-State of the World (Main Theme)DR17      -0.56 дБ   -20.43 дБ      3:32 02-State of the World (Main Theme, Without Brass)DR10      -0.56 дБ   -16.73 дБ      1:01 03-State of the World (Underscore, Piano and Strings)DR13      -0.56 дБ   -17.40 дБ      1:06 04-State of the World (60 Second Version)DR11      -0.56 дБ   -15.28 дБ      0:35 05-State of the World (30 Second Version)DR11      -0.56 дБ   -18.19 дБ      0:25 06-State of the World (20 Second Version)DR11      -0.56 дБ   -17.16 дБ      0:12 07-State of the World (Sting No.1)DR15      -0.56 дБ   -18.05 дБ      0:12 08-State of the World (Sting No.2)DR14      -0.56 дБ   -17.93 дБ      3:09 09-Power Struggle (Main Theme)DR14      -0.56 дБ   -17.74 дБ      3:09 10-Power Struggle (Main Theme, Without Brass)DR13      -0.56 дБ   -16.40 дБ      2:46 11-Power Struggle (Underscore, Slower Piano Feature)DR13      -0.56 дБ   -16.25 дБ      1:07 12-Power Struggle (60 Second Version)DR13      -0.56 дБ   -17.11 дБ      0:36 13-Power Struggle (30 Second Version)DR12      -0.56 дБ   -16.12 дБ      0:26 14-Power Struggle (20 Second Version)DR17      -0.56 дБ   -18.12 дБ      0:10 15-Power Struggle (Sting No.1)DR3       -0.56 дБ   -22.12 дБ      0:15 16-Power Struggle (Sting No.2)DR13      -0.56 дБ   -14.93 дБ      3:20 17-The Right Stuff (Main Theme)DR14      -0.56 дБ   -18.71 дБ      4:09 18-The Right Stuff (Underscore, Slow, Featured Sax)DR12      -0.56 дБ   -14.37 дБ      1:06 19-The Right Stuff (60 Second Version)DR12      -0.56 дБ   -16.21 дБ      0:36 20-The Right Stuff (30 Second Version)DR12      -0.56 дБ   -18.23 дБ      0:26 21-The Right Stuff (20 Second Version)DR16      -0.56 дБ   -17.56 дБ      0:12 22-The Right Stuff (Sting No.1)DR10      -0.56 дБ   -16.29 дБ      0:14 23-The Right Stuff (Sting No.2)DR14      -0.56 дБ   -16.77 дБ      3:10 24-Second Time Around (Main Theme)DR16      -0.56 дБ   -18.10 дБ      3:09 25-Second Time Around (Main Theme, Without Brass)DR13      -0.56 дБ   -15.87 дБ      3:20 26-Second Time Around (Underscore, Slow, Atmospheric)DR14      -0.56 дБ   -16.87 дБ      1:06 27-Second Time Around (60 Second Version)DR13      -0.56 дБ   -16.62 дБ      0:37 28-Second Time Around (30 Second Version)DR13      -0.56 дБ   -16.36 дБ      0:26 29-Second Time Around (20 Second Version)DR18      -0.56 дБ   -19.13 дБ      0:10 30-Second Time Around (Sting No.1)DR16      -0.56 дБ   -20.57 дБ      0:11 31-Second Time Around (Sting No.2)DR15      -0.56 дБ   -19.07 дБ      3:59 32-Overground (Main Theme)DR16      -0.56 дБ   -18.34 дБ      4:00 33-Overground (Main Theme, Without Brass)DR15      -0.56 дБ   -18.38 дБ      3:59 34-Overground (Underscore)DR15      -0.56 дБ   -18.59 дБ      1:07 35-Overground (60 Second Version)DR13      -0.56 дБ   -16.53 дБ      0:37 36-Overground (30 Second Version)DR14      -0.56 дБ   -18.97 дБ      0:26 37-Overground (20 Second Version)DR12      -0.56 дБ   -18.81 дБ      0:12 38-Overground (Sting No.1)DR10      -0.56 дБ   -20.41 дБ      0:09 39-Overground (Sting No.2)--------------------------------------------------------------------------------Количество треков: 39Реальные значения DR: DR13Частота:   48000 ГцКаналов:   2Разрядность:   16Битрейт:   476 кбит/сКодек:   FLAC================================================================================

Скриншот спектра частот

артист

Об исполнителе (группе)

https://www.discogs.com/artist/151064-Roger-Jackson

Об альбоме (сборнике)

https://www.discogs.com/master/view/803122

Состав

Written-By – Roger Jackson
Producer – Sarah-Jane Woodhams
.
.
.

еще Роджер Джексон и его коллега Роджер Вэб
1983 - Flashpoint
1987 - Switchcraft
1988 - Power Struggle
1978 - Sound Waves
1978 - Prime Time - Contempo
1979 - New Visions

Чтобы скачать этот контент, Вам необходимо:
1. Скачать и установить торрент-клиент [клик для Windows], (для мобильного найдите на Play Маркет).
2. Кликнуть по [Скачать]


Внимание.
Если проверка ВЫ НЕ РОБОТ - не работает, значит Вы используете устаревший браузер.
Установите актуальный браузер и повторно кликните по [Скачать]
Безопасность: торрент-клиент разрешён АВ Касперского.

[asmlocator.ru].t650809.torrent 
Торрент: Зарегистрирован [ 2019-07-11 18:10 ] · D719A020EF8572C65253A698CB57F0A87D2E9A11

Скачать .torrent

Скачать

29 KB

Статус: проверено
Скачан: 0 раз
Размер: 329 MB
terms.php
[Профиль] [ЛС]
Показать сообщения:    
Ответить на тему

Текущее время: 20-Сен 22:34

Часовой пояс: UTC ± 0



Вы не можете начинать темы
Вы не можете отвечать на сообщения
Вы не можете редактировать свои сообщения
Вы не можете удалять свои сообщения
Вы не можете голосовать в опросах
Вы не можете прикреплять файлы к сообщениям
Вы можете скачивать файлы
Верим фактам, а не вранью Путина! Факт, что Правительство ведёт Россию к истреблению.
Так как численность населения падает, даже не смотря на приток эмигрантов!
Русская нация вымирает и вырождается, смешиваясь с эмигрантами!
Факт, что военных и граждан предприятий заставляют голосовать за партию Единая Россия и Путина
ПОД СТРАХОМ УВОЛЬНЕНИЯ!
Нам не нужно Правительство, блокирующее личную жизнь, интернет, нарушающее сохранность данных.
Все эти действия финансируются за счёт народа!