(Downtempo, Chillstep, Psybient, World) [WEB] AmBeam - Land of Memories, [Mistique Emotion: MISTE010], 2011, FLAC (tracks), lossless

Ответить на тему
Статистика раздачи
Размер:  363 MB   |    Зарегистрирован:  4 месяца 4 дня   |    Скачан:  2 раза

Полного источника не было: 26 дней

 
   
 
 
Автор Сообщение

star21 ®

Пол: Женский

Стаж: 4 года

Сообщений: 551946

Откуда: Екатеринбург

Создавать темы 11-Июл-2019 11:50

[Цитировать]

AmBeam — Land of Memories (2011, Mistique Emotion) Жанр: Electronic
Стиль: Downtempo, Chillstep, Psybient, World
Формат: WEB
Год издания: 2011
Издатель (лейбл): Mistique Emotion
Номер по каталогу: MISTE010
Страна исполнителя (группы): Georgia
Аудиокодек: FLAC (*.flac)
Тип рипа: tracks
Продолжительность: 01:20:37
Источник: Senor Peligro (rutracker)
Наличие сканов в содержимом раздачи: только обложкаТреклист:
01. AmBeam - 01.09.1939 [06:51]
02. AmBeam - Breath of Gold [10:45]
03. AmBeam - Crystal Clear [08:33]
04. AmBeam - Love Supreme [05:18]
05. AmBeam - Memoirs of Youth [08:37]
06. AmBeam - Spiritual Healer [10:13]
07. AmBeam - Sunlake [06:17]
08. AmBeam - The Dunes [11:25]
09. AmBeam - Unreturned Love [12:38]
Полезные ссылки:
  • MusicBrainz: AmBeam — Land of Memories
    • Discogs: AmBeam — Land of Memories
    • Beatport: AmBeam — Land of Memories

      Лог проверки качества

      -----------------------DON'T MODIFY THIS FILE-----------------------PERFORMER: auCDtect Task Manager, ver. 1.6.0 RC1 build 1.6.0.1Copyright (c) 2008-2010 y-soft. All rights reservedhttp://y-soft.orgANALYZER: auCDtect: CD records authenticity detector, version 0.8.2Copyright (c) 2004 Oleg Berngardt. All rights reserved.Copyright (c) 2004 Alexander Djourik. All rights reserved.FILE: 09. Unreturned Love.flac  Size: 44678150 Hash: 868F8BBD511CF261CED3826590A5C37D Accuracy: -m0  Conclusion: CDDA 76%  Signature: 03068AD8C22336AECCDAD73C43E03737A803C752FILE: 08. The Dunes.flac  Size: 60141271 Hash: C563CC2C5C46B37C830655562E3D67A8 Accuracy: -m0  Conclusion: CDDA 99%  Signature: 8B6280396FEFF552AD88281FD0C8A977C4BDB265FILE: 07. Sunlake.flac  Size: 35168139 Hash: A5D3F34359A3E138FA6DAEDB33BA7E4C Accuracy: -m0  Conclusion: CDDA 100%  Signature: BC3DE536407241E1BAF0FEF36E15CF6374EFFF41FILE: 06. Spiritual Healer.flac  Size: 42320953 Hash: CBF7858F7038704822885F6F0A4843BA Accuracy: -m0  Conclusion: CDDA 100%  Signature: 16B9E6C22EA8EBD5234521CFB508E0DAF3733DB9FILE: 05. Memoirs of Youth.flac  Size: 46030189 Hash: 96A965DFFF88E2D8F6FBA41DA2EFA9D6 Accuracy: -m0  Conclusion: MPEG 95%  Signature: E6836B2B9143E46A2E8A01556CA0FBF7651C678BFILE: 04. Love Supreme.flac  Size: 32098619 Hash: 0F596ABBBB98FD262B02BFCCA0CA5BF8 Accuracy: -m0  Conclusion: CDDA 100%  Signature: 2A9E289BF88370D037BE4147A09C1FC24C4AF2EFFILE: 03. Crystal Clear.flac  Size: 48740226 Hash: C2FF880EF283F292416F055AB780A85F Accuracy: -m0  Conclusion: MPEG 95%  Signature: F8740D3E03CC2DB72D76AA35506E23C50F2EB955FILE: 02. Breath of Gold.flac  Size: 40024559 Hash: A30B1F6290D357093FCEBF219575B03D Accuracy: -m0  Conclusion: MPEG 91%  Signature: 97E7E2A87ED8C61CFE4B2C4BCD9A65D8AB9E816EFILE: 01. 01.09.1939.flac  Size: 30664684 Hash: 22E961D3B6FF589B6ACD9DC9F52B0B11 Accuracy: -m0  Conclusion: MPEG 100%  Signature: 21D01F04A9293D4013E2E7AA2069471C9DF7E2B8

      Скриншот спектра частот

      Замер динамического диапазона (DRM)

      foobar2000 1.3.17 / Dynamic Range Meter 1.1.1log date: 2019-07-10 14:23:21--------------------------------------------------------------------------------Analyzed: AmBeam / Land of Memories--------------------------------------------------------------------------------DR         Peak         RMS     Duration Track--------------------------------------------------------------------------------DR10       0.00 dB   -13.55 dB      6:51 01-01.09.1939DR9        0.00 dB   -11.38 dB     10:46 02-Breath of GoldDR12      -1.91 dB   -16.45 dB      8:33 03-Crystal ClearDR8        0.00 dB   -10.60 dB      5:18 04-Love SupremeDR11       0.00 dB   -12.55 dB      8:37 05-Memoirs of YouthDR13       0.00 dB   -16.38 dB     10:13 06-Spiritual HealerDR12      -0.33 dB   -14.04 dB      6:18 07-SunlakeDR10       0.00 dB   -12.83 dB     11:25 08-The DunesDR15       0.00 dB   -16.86 dB     12:38 09-Unreturned Love--------------------------------------------------------------------------------Number of tracks:  9Official DR value: DR11Samplerate:        44100 HzChannels:          2Bits per sample:   16Bitrate:           468 kbpsCodec:             FLAC================================================================================
  • Чтобы скачать этот контент, Вам необходимо:
    1. Скачать и установить торрент-клиент [клик для Windows], (для мобильного найдите на Play Маркет).
    2. Кликнуть по [Скачать]


    Внимание.
    Если проверка ВЫ НЕ РОБОТ - не работает, значит Вы используете устаревший браузер.
    Установите актуальный браузер и повторно кликните по [Скачать]
    Безопасность: торрент-клиент разрешён АВ Касперского.

    [mail.asmlocator.ru].t650726.torrent 
    Торрент: Зарегистрирован [ 2019-07-11 11:50 ] · E78BF37DDE547786B45FBBBEDCCBD187E3FE0578

    Скачать .torrent

    Скачать

    15 KB

    Статус: проверено
    Скачан: 2 раз
    Размер: 363 MB
    terms.php
    [Профиль] [ЛС]
    Показать сообщения:    
    Ответить на тему

    Текущее время: 15-Ноя 14:48

    Часовой пояс: UTC ± 0



    Вы не можете начинать темы
    Вы не можете отвечать на сообщения
    Вы не можете редактировать свои сообщения
    Вы не можете удалять свои сообщения
    Вы не можете голосовать в опросах
    Вы не можете прикреплять файлы к сообщениям
    Вы можете скачивать файлы
    Верим фактам, а не вранью Путина! Факт, что Правительство ведёт Россию к истреблению.
    Так как численность населения падает, даже не смотря на приток эмигрантов!
    Русская нация вымирает и вырождается, смешиваясь с эмигрантами!
    Факт, что военных и граждан предприятий заставляют голосовать за партию Единая Россия и Путина
    ПОД СТРАХОМ УВОЛЬНЕНИЯ!
    Нам не нужно Правительство, блокирующее личную жизнь, интернет, нарушающее сохранность данных.
    Все эти действия финансируются за счёт народа!