(Progressive Death Metal) [CD] Serdce (Сердце) - Дискография - 2003-2014, 5CD, FLAC (image + .cue), lossless

Reply to topic
DL-List and Torrent activity
Size:  2.46 GB   |    Registered:  1 month 14 days   |    Completed:  1 time

Seeder not seen: 20 minutes

 
   
 
 
Author Message

star21 ®

Gender: Female

Longevity: 3 years 9 months

Posts: 551989

Location: Екатеринбург

Post 09-Jul-2019 12:20

[Quote]

Lossless Group представляет:
Serdce (Сердце)
Дискография
Страна: Беларусь
Производитель диска: Берарусь, Великобритания, Канада, Россия, Финляндия
Жанр: Progressive Death Metal
Год выпуска: 2003-2014
Формат: FLAC (image + .cue)
Битрейт аудио: lossless
Продолжительность: 5 CD
Метод рипа: EAC test+copy
Комплектация: Для каждого диска: FLAC со встроенным cue, отдельные cue для wav и flac, .toc file для cdrdao, полный набор сканов, логи.
hexonut [Lossless Group, rutracker.org]. Все рипы с фирменных дисков из личной коллекции.Огромное спасибо Melek Taus за подаренный диск Аритмия.Всех с Днем Победы!Трэклист:

2003-Aритмия

Лейбл: Art Classic Company
Страна-производитель диска: Беларусь
Год издания диска: 2003
Номер по каталогу: -Сердце - 2003 - Аритмия01. Реинкорнация (01:40)
02. Скорбь (05:36)
03. ...к Богу (03:17)
04. Всё Ошибка (04:36)
05. Не Молчи (05:44)
06. Сердце (04:22)
07. Чернобыль (04:27)
08. На Неве (06:27)
09. Не Прощён (04:49)
10. Аритмия (07:37)Продолжительность: 00:48:34

EAC Log

Exact Audio Copy V1.1 from 23. June 2015EAC extraction logfile from 7. May 2019, 13:32Сердце / АритмияUsed drive  : HL-DT-STBD-RE  WH16NS40   Adapter: 5  ID: 0Read mode               : SecureUtilize accurate stream : YesDefeat audio cache      : YesMake use of C2 pointers : NoRead offset correction                      : 6Overread into Lead-In and Lead-Out          : NoFill up missing offset samples with silence : YesDelete leading and trailing silent blocks   : NoNull samples used in CRC calculations       : YesUsed interface                              : Installed external ASPI interfaceUsed output format : Internal WAV RoutinesSample format      : 44.100 Hz; 16 Bit; StereoTOC of the extracted CD     Track |   Start  |  Length  | Start sector | End sector    ---------------------------------------------------------        1  |  0:00.00 |  1:41.61 |         0    |     7635        2  |  1:41.61 |  5:35.65 |      7636    |    32825        3  |  7:17.51 |  3:16.67 |     32826    |    47592        4  | 10:34.43 |  4:36.12 |     47593    |    68304        5  | 15:10.55 |  5:43.51 |     68305    |    94080        6  | 20:54.31 |  4:21.51 |     94081    |   113706        7  | 25:16.07 |  4:26.58 |    113707    |   133714        8  | 29:42.65 |  6:27.36 |    133715    |   162775        9  | 36:10.26 |  4:48.71 |    162776    |   184446       10  | 40:59.22 |  7:35.08 |    184447    |   218579Range status and errorsSelected range     Filename Z:\data\hexonut\Seeding\Serdce\2003-Aритмия\Аритмия.wav     Peak level 97.7 %     Extraction speed 7.2 X     Range quality 100.0 %     Test CRC B2C1E29C     Copy CRC B2C1E29C     Copy OKNo errors occurredAccurateRip summaryTrack  1  accurately ripped (confidence 1)  [B3E829D1]  (AR v2)Track  2  accurately ripped (confidence 1)  [58F90E39]  (AR v2)Track  3  accurately ripped (confidence 1)  [6668EDEE]  (AR v2)Track  4  accurately ripped (confidence 1)  [22130569]  (AR v2)Track  5  accurately ripped (confidence 1)  [37ABF4AA]  (AR v2)Track  6  accurately ripped (confidence 1)  [4EAA3455]  (AR v2)Track  7  accurately ripped (confidence 1)  [71CA6083]  (AR v2)Track  8  accurately ripped (confidence 1)  [C2004CD2]  (AR v2)Track  9  accurately ripped (confidence 1)  [363A8091]  (AR v2)Track 10  accurately ripped (confidence 1)  [62570955]  (AR v2)All tracks accurately rippedEnd of status report==== Log checksum F0EFFEDE8537AECE1B69D0A0559E0B071646AA5CD4F07843C09CBD1AF7D6A934 ====

2005-Cyberly

Лейбл: Союз / Metal Age
Страна-производитель диска: Россия
Год издания диска: 2005
Номер по каталогу: SZCD 3219-05Serdce - 2005 - Cyberly01. Beyond The Edge (07:00)
02. Cast Away (03:27)
03. Spiritual Loneliness (05:34)
04. Revelation (05:37)
05. My World Is Another World (05:36)
06. System (05:47)
07. Axis Of Evil (06:00)
08. Aritmiya Pt. 2 'Cyberly' (09:36)
09. Tri-Bute (05:54)Продолжительность: 00:54:30

EAC Log

Exact Audio Copy V1.1 from 23. June 2015EAC extraction logfile from 18. December 2018, 12:52Serdce / CyberlyUsed drive  : HL-DT-STBD-RE  WH16NS40   Adapter: 5  ID: 0Read mode               : SecureUtilize accurate stream : YesDefeat audio cache      : YesMake use of C2 pointers : NoRead offset correction                      : 6Overread into Lead-In and Lead-Out          : NoFill up missing offset samples with silence : YesDelete leading and trailing silent blocks   : NoNull samples used in CRC calculations       : YesUsed interface                              : Installed external ASPI interfaceUsed output format : Internal WAV RoutinesSample format      : 44.100 Hz; 16 Bit; StereoTOC of the extracted CD     Track |   Start  |  Length  | Start sector | End sector    ---------------------------------------------------------        1  |  0:00.00 |  7:00.05 |         0    |    31504        2  |  7:00.05 |  3:26.53 |     31505    |    47007        3  | 10:26.58 |  5:33.55 |     47008    |    72037        4  | 16:00.38 |  5:36.66 |     72038    |    97303        5  | 21:37.29 |  5:35.43 |     97304    |   122471        6  | 27:12.72 |  5:46.71 |    122472    |   148492        7  | 32:59.68 |  6:00.12 |    148493    |   175504        8  | 39:00.05 |  9:36.19 |    175505    |   218723        9  | 48:36.24 |  5:53.45 |    218724    |   245243Range status and errorsSelected range     Filename Z:\data\hexonut\Seeding\Serdce\2005-Cyberly\Cyberly.wav     Peak level 99.9 %     Extraction speed 7.3 X     Range quality 100.0 %     Test CRC BC65317D     Copy CRC BC65317D     Copy OKNo errors occurredAccurateRip summaryTrack  1  accurately ripped (confidence 3)  [07CB8C13]  (AR v1)Track  2  accurately ripped (confidence 3)  [2BFAA741]  (AR v1)Track  3  accurately ripped (confidence 3)  [0BCA3F6B]  (AR v1)Track  4  accurately ripped (confidence 3)  [A8BF5BE3]  (AR v1)Track  5  accurately ripped (confidence 3)  [491D285E]  (AR v1)Track  6  accurately ripped (confidence 3)  [0ABE6BCF]  (AR v1)Track  7  accurately ripped (confidence 3)  [CC5F78D8]  (AR v1)Track  8  accurately ripped (confidence 3)  [62E1AB5A]  (AR v1)Track  9  accurately ripped (confidence 3)  [9FBB1B74]  (AR v1)All tracks accurately rippedEnd of status report==== Log checksum D9403BD3170EA67925381B4AF50443B2F1D9F0BCFD164F7C444519A51A053722 ====

2009-The Alchemy Of Harmony

2009-The Alchemy Of Harmony [Strong Music Productions, Belarus, SMP007]

Лейбл: Strong Music Productions
Страна-производитель диска: Беларусь
Год издания диска: 2009
Номер по каталогу: SMP007Serdce - 2009 - The Alchemy Of Harmony01. Prologue (02:15)
02. Life Thoughts Memory (07:22)
03. The Pathologies Of Existence (06:44)
04. Inevitability (05:29)
05. Parallels (Instrumental) (05:49)
06. Time That Kills (07:12)
07. Dolls (05:57)
08. Voices Inside Me (06:28)
09. Epilogue (03:24)Продолжительность: 00:50:41

EAC Log

Exact Audio Copy V1.1 from 23. June 2015EAC extraction logfile from 18. December 2018, 14:54Serdce / The Alchemy Of HarmonyUsed drive  : PLEXTOR CD-R   PX-240A   Adapter: 6  ID: 0Read mode               : SecureUtilize accurate stream : YesDefeat audio cache      : YesMake use of C2 pointers : NoRead offset correction                      : 6Overread into Lead-In and Lead-Out          : NoFill up missing offset samples with silence : YesDelete leading and trailing silent blocks   : NoNull samples used in CRC calculations       : YesUsed interface                              : Installed external ASPI interfaceUsed output format : Internal WAV RoutinesSample format      : 44.100 Hz; 16 Bit; StereoTOC of the extracted CD     Track |   Start  |  Length  | Start sector | End sector    ---------------------------------------------------------        1  |  0:00.00 |  2:15.25 |         0    |    10149        2  |  2:15.25 |  7:22.37 |     10150    |    43336        3  |  9:37.62 |  6:43.45 |     43337    |    73606        4  | 16:21.32 |  5:29.36 |     73607    |    98317        5  | 21:50.68 |  5:48.61 |     98318    |   124478        6  | 27:39.54 |  7:12.01 |    124479    |   156879        7  | 34:51.55 |  5:57.25 |    156880    |   183679        8  | 40:49.05 |  6:28.08 |    183680    |   212787        9  | 47:17.13 |  3:23.73 |    212788    |   228085Range status and errorsSelected range     Filename Z:\data\hexonut\Seeding\Serdce\2009-The Alchemy Of Harmony\2009-The Alchemy Of Harmony [Strong Music Productions, Belarus, SMP007]\The Alchemy Of Harmony.wav     Peak level 98.8 %     Extraction speed 8.7 X     Range quality 99.9 %     Test CRC D72384FF     Copy CRC D72384FF     Copy OKNo errors occurredAccurateRip summaryTrack  1  accurately ripped (confidence 1)  [AA46AE4A]  (AR v1)Track  2  accurately ripped (confidence 1)  [C184B9D0]  (AR v1)Track  3  accurately ripped (confidence 1)  [79EE31E0]  (AR v1)Track  4  accurately ripped (confidence 1)  [919B2DD7]  (AR v1)Track  5  accurately ripped (confidence 1)  [7C669A24]  (AR v1)Track  6  accurately ripped (confidence 1)  [EC14FFA6]  (AR v1)Track  7  accurately ripped (confidence 1)  [3C6FFFAE]  (AR v1)Track  8  accurately ripped (confidence 1)  [4904FBFB]  (AR v1)Track  9  accurately ripped (confidence 1)  [1F8624E4]  (AR v1)All tracks accurately rippedEnd of status report==== Log checksum 5B40AC09FD524D79244C1F6A511C7F1C4C9CFC380B8EB6950DCF2D140A67344E ====

2011-The Alchemy Of Harmony [PRC Music, Canada, PRC02]

Лейбл: PRC Music
Страна-производитель диска: Канада
Год издания диска: 2011
Номер по каталогу: -Serdce - 2011 - The Alchemy Of Harmony (PRC Music)01. Prologue (02:15)
02. Life Thoughts Memory (07:22)
03. The Pathologies Of Existence (06:44)
04. Inevitability (05:29)
05. Parallels (Instrumental) (05:49)
06. Time That Kills (07:12)
07. Dolls (05:57)
08. Voices Inside Me (06:28)
09. Epilogue (03:24)Продолжительность: 00:50:41

EAC Log

Exact Audio Copy V1.1 from 23. June 2015EAC extraction logfile from 18. December 2018, 12:52Serdce / The Alchemy Of Harmony (PRC Music)Used drive  : PLEXTOR CD-R   PX-240A   Adapter: 6  ID: 0Read mode               : SecureUtilize accurate stream : YesDefeat audio cache      : YesMake use of C2 pointers : NoRead offset correction                      : 6Overread into Lead-In and Lead-Out          : NoFill up missing offset samples with silence : YesDelete leading and trailing silent blocks   : NoNull samples used in CRC calculations       : YesUsed interface                              : Installed external ASPI interfaceUsed output format : Internal WAV RoutinesSample format      : 44.100 Hz; 16 Bit; StereoTOC of the extracted CD     Track |   Start  |  Length  | Start sector | End sector    ---------------------------------------------------------        1  |  0:00.00 |  2:15.25 |         0    |    10149        2  |  2:15.25 |  7:22.37 |     10150    |    43336        3  |  9:37.62 |  6:43.45 |     43337    |    73606        4  | 16:21.32 |  5:29.36 |     73607    |    98317        5  | 21:50.68 |  5:48.61 |     98318    |   124478        6  | 27:39.54 |  7:12.01 |    124479    |   156879        7  | 34:51.55 |  5:57.25 |    156880    |   183679        8  | 40:49.05 |  6:28.08 |    183680    |   212787        9  | 47:17.13 |  3:23.73 |    212788    |   228085Range status and errorsSelected range     Filename Z:\data\hexonut\Seeding\Serdce\2009-The Alchemy Of Harmony\2011-The Alchemy Of Harmony [PRC Music, Canada, PRC02]\The Alchemy Of Harmony (PRC Music).wav     Peak level 98.8 %     Extraction speed 9.5 X     Range quality 99.9 %     Test CRC BFE21154     Copy CRC BFE21154     Copy OKNo errors occurredAccurateRip summaryTrack  1  accurately ripped (confidence 1)  [1801B935]  (AR v2)Track  2  accurately ripped (confidence 1)  [6E85270E]  (AR v2)Track  3  accurately ripped (confidence 1)  [AC820100]  (AR v2)Track  4  accurately ripped (confidence 1)  [2051B406]  (AR v2)Track  5  accurately ripped (confidence 1)  [A8CD67A7]  (AR v2)Track  6  accurately ripped (confidence 1)  [2AD69C7C]  (AR v2)Track  7  accurately ripped (confidence 1)  [85D00A44]  (AR v2)Track  8  accurately ripped (confidence 1)  [B989FCC7]  (AR v2)Track  9  accurately ripped (confidence 1)  [53F0BB98]  (AR v2)All tracks accurately rippedEnd of status report==== Log checksum 09189D1CF714B13A7A623E50174DF52B45A54EA5789BAA4BED3CBF2C39247C25 ====

2014-Timelessness

Лейбл: Blood Music
Страна-производитель диска: Финляндия / Великобритания
Год издания диска: 2014
Номер по каталогу: BLOOD-056Serdce - 2014 - Timelessness01. Into Shambhala (03:33)
02. Samadhi (06:43)
03. Omens (09:07)
04. Last Faith (09:39)
05. Loss Of Feelings Or Feelings Of Loss (06:53)
06. The Sixth Sense (06:40)
07. Unique Path (07:38)
08. Quasar (06:11)
09. Newborn (02:23)
10. Magic Rain (07:14)Продолжительность: 01:06:01

EAC Log

Exact Audio Copy V1.0 beta 3 from 29. August 2011EAC extraction logfile from 6. August 2014, 11:19Serdce / TimelessnessUsed drive  : LITE-ON DVDRW LH-20A1L   Adapter: 6  ID: 0Read mode               : SecureUtilize accurate stream : YesDefeat audio cache      : YesMake use of C2 pointers : NoRead offset correction                      : 6Overread into Lead-In and Lead-Out          : NoFill up missing offset samples with silence : YesDelete leading and trailing silent blocks   : NoNull samples used in CRC calculations       : YesUsed interface                              : Installed external ASPI interfaceUsed output format : Internal WAV RoutinesSample format      : 44.100 Hz; 16 Bit; StereoTOC of the extracted CD     Track |   Start  |  Length  | Start sector | End sector    ---------------------------------------------------------        1  |  0:00.00 |  3:33.23 |         0    |    15997        2  |  3:33.23 |  6:42.52 |     15998    |    46199        3  | 10:16.00 |  9:06.42 |     46200    |    87191        4  | 19:22.42 |  9:39.21 |     87192    |   130637        5  | 29:01.63 |  6:52.66 |    130638    |   161603        6  | 35:54.54 |  6:39.69 |    161604    |   191597        7  | 42:34.48 |  7:37.59 |    191598    |   225931        8  | 50:12.32 |  6:11.23 |    225932    |   253779        9  | 56:23.55 |  2:23.01 |    253780    |   264505       10  | 58:46.56 |  7:14.31 |    264506    |   297086Range status and errorsSelected range     Filename Z:\data\hexonut\Seeding\Serdce\2014-Timelessness\Timelessness.wav     Peak level 100.0 %     Extraction speed 9.1 X     Range quality 100.0 %     Test CRC 6D994943     Copy CRC 6D994943     Copy OKNo errors occurredAccurateRip summaryTrack  1  not present in databaseTrack  2  not present in databaseTrack  3  not present in databaseTrack  4  not present in databaseTrack  5  not present in databaseTrack  6  not present in databaseTrack  7  not present in databaseTrack  8  not present in databaseTrack  9  not present in databaseTrack 10  not present in databaseNone of the tracks are present in the AccurateRip databaseEnd of status report==== Log checksum 3F1B31295B0700BE096AAB5F5FFB4264282C1C6434F88C2BE4B08269F2BAD5C8 ====

To download the content you need:
1. Download and install torrent client [for Windows] or for mobile system
2. Click on [Download]
Attention.
If the test YOU are NOT a ROBOT - does not work, then You are using an outdated browser.
Install the current browser and click on [Download]
Security: torrent client is allowed by Kaspersky.

[asmlocator.ru].t650010.torrent 
Torrent: Registered [ 2019-07-09 12:20 ] · 8E922CFA58503C77AD044E0E4F6A56F1A4DC9D10

Download .torrent

Download

401 KB

Status: checked
Completed: 1 times
Size: 2.46 GB
terms.php
[Profile] [PM]

jazzyswallower

Gender:

Longevity: 1 month 13 days

Posts: 1

Location: нижний новгород

Post 11-Jul-2019 20:23 (after 2 days 8 hours)

[Quote]

спасибо!!!! Крутая вещь. Искал её в качестве. Отличные последователи Cynic, Atheist, Death конечно со своим великолепным материалом. Сложно, отличные мелодии, новые необычные подходы, разнообразно, джаза много- супер!Образцовый technical death!
[Profile] [PM]
Display posts:    
Reply to topic

Current time is: 23-Aug 22:00

All times are UTC ± 0



You cannot post new topics in this forum
You cannot reply to topics in this forum
You cannot edit your posts in this forum
You cannot delete your posts in this forum
You cannot vote in polls in this forum
You cannot attach files in this forum
You can download files in this forum