(Folk-Rock, Singer-Songwriter) [CD] Michael Chapman - Window (remastered, expanded edition) - 2015 (1970), FLAC (tracks+.cue), lossless

Ответить на тему
Статистика раздачи
Размер:  370 MB   |    Зарегистрирован:  3 месяца 14 дней   |    Скачан:  1 раз

Полного источника не было: 1 день 13 часов

 
   
 
 
Автор Сообщение

star21 ®

Пол: Женский

Стаж: 3 года 11 месяцев

Сообщений: 551988

Откуда: Екатеринбург

Создавать темы 07-Июл-2019 09:30

[Цитировать]

Michael Chapman / Window (remastered, expanded edition) Жанр: Folk-Rock, Singer-Songwriter
Носитель: CD
Страна-производитель диска (релиза): USA
Год издания: 2015 (1970)
Издатель (лейбл): Light in the Attic Records
Номер по каталогу: LITA 124
Страна исполнителя (группы): UK
Аудиокодек: FLAC (*.flac)
Тип рипа: tracks+.cue
Продолжительность: 00:43:39
Источник: собственный рип
Наличие сканов в содержимом раздачи: да

Треклист

01. Lady on the Rocks / Song for September 06:22
02. Last Lady Song 05:48
03. Among the Trees 04:43
04. An Old Man Remembers 03:04
05. In the Valley 06:24
06. First Lady Song 00:59
07. Landships 03:27
08. A Scholarly Man 05:38
09. She Came In Like the “6.15” and Made a Hole in the Wall 03:33
10. The Hobo’s Lamentation (bonus track) 02:09
11. Never in My Life (bonus track) 01:32All songs are written by Michael Chapman

Лог создания рипа

Exact Audio Copy V1.3 from 2. September 2016EAC extraction logfile from 5. May 2019, 15:50Michael Chapman / Window (2015 remastered, expanded edition)Used drive  : ASUS    BW-12D1S-U   Adapter: 1  ID: 1Read mode               : SecureUtilize accurate stream : YesDefeat audio cache      : YesMake use of C2 pointers : NoRead offset correction                      : 667Overread into Lead-In and Lead-Out          : NoFill up missing offset samples with silence : YesDelete leading and trailing silent blocks   : NoNull samples used in CRC calculations       : YesUsed interface                              : Native Win32 interface for Win NT & 2000Gap handling                                : Appended to previous trackUsed output format              : User Defined EncoderSelected bitrate                : 1024 kBit/sQuality                         : HighAdd ID3 tag                     : NoCommand line compressor         : C:\Program Files (x86)\Exact Audio Copy\FLAC\FLAC.EXEAdditional command line options : -V -8 -T "Genre=%genre%" -T "Artist=%artist%" -T "Title=%title%" -T "Album=%albumtitle%" -T "Date=%year%" -T "Tracknumber=%tracknr%" -T "Comment=%comment%" %source%TOC of the extracted CD     Track |   Start  |  Length  | Start sector | End sector    ---------------------------------------------------------        1  |  0:00.00 |  6:22.01 |         0    |    28650        2  |  6:22.01 |  5:48.35 |     28651    |    54785        3  | 12:10.36 |  4:43.32 |     54786    |    76042        4  | 16:53.68 |  3:03.39 |     76043    |    89806        5  | 19:57.32 |  6:23.69 |     89807    |   118600        6  | 26:21.26 |  0:58.53 |    118601    |   123003        7  | 27:20.04 |  3:27.12 |    123004    |   138540        8  | 30:47.16 |  5:38.12 |    138541    |   163902        9  | 36:25.28 |  3:32.62 |    163903    |   179864       10  | 39:58.15 |  2:09.03 |    179865    |   189542       11  | 42:07.18 |  1:32.31 |    189543    |   196473Track  1     Filename E:\Torrents of Autumn\Chapman, Michael [1970] Window (2015 remastered, expanded ed.)\01. Lady on the Rocks,Song for September.wav     Pre-gap length  0:00:02.00     Peak level 96.5 %     Extraction speed 4.7 X     Track quality 100.0 %     Test CRC CCDCD2A0     Copy CRC CCDCD2A0     Accurately ripped (confidence 4)  [6270F6B9]  (AR v2)     Copy OKTrack  2     Filename E:\Torrents of Autumn\Chapman, Michael [1970] Window (2015 remastered, expanded ed.)\02. Last Lady Song.wav     Peak level 96.5 %     Extraction speed 5.4 X     Track quality 100.0 %     Test CRC F1B130EA     Copy CRC F1B130EA     Accurately ripped (confidence 4)  [E02CFFE3]  (AR v2)     Copy OKTrack  3     Filename E:\Torrents of Autumn\Chapman, Michael [1970] Window (2015 remastered, expanded ed.)\03. Among the Trees.wav     Pre-gap length  0:00:00.32     Peak level 96.5 %     Extraction speed 5.7 X     Track quality 100.0 %     Test CRC F8763A5B     Copy CRC F8763A5B     Accurately ripped (confidence 4)  [9DA6302F]  (AR v2)     Copy OKTrack  4     Filename E:\Torrents of Autumn\Chapman, Michael [1970] Window (2015 remastered, expanded ed.)\04. An Old Man Remembers.wav     Pre-gap length  0:00:02.22     Peak level 96.5 %     Extraction speed 5.7 X     Track quality 100.0 %     Test CRC B223E843     Copy CRC B223E843     Accurately ripped (confidence 4)  [6237662F]  (AR v2)     Copy OKTrack  5     Filename E:\Torrents of Autumn\Chapman, Michael [1970] Window (2015 remastered, expanded ed.)\05. In the Valley.wav     Pre-gap length  0:00:01.50     Peak level 96.5 %     Extraction speed 6.6 X     Track quality 100.0 %     Test CRC 0426612F     Copy CRC 0426612F     Accurately ripped (confidence 4)  [3AFDE9EA]  (AR v2)     Copy OKTrack  6     Filename E:\Torrents of Autumn\Chapman, Michael [1970] Window (2015 remastered, expanded ed.)\06. First Lady Song.wav     Pre-gap length  0:00:00.02     Peak level 96.5 %     Extraction speed 4.6 X     Track quality 100.0 %     Test CRC 14FE5986     Copy CRC 14FE5986     Accurately ripped (confidence 4)  [BA2A6C6E]  (AR v2)     Copy OKTrack  7     Filename E:\Torrents of Autumn\Chapman, Michael [1970] Window (2015 remastered, expanded ed.)\07. Landships.wav     Pre-gap length  0:00:02.50     Peak level 96.5 %     Extraction speed 5.6 X     Track quality 99.9 %     Test CRC 1A681138     Copy CRC 1A681138     Accurately ripped (confidence 3)  [C9E177EC]  (AR v2)     Copy OKTrack  8     Filename E:\Torrents of Autumn\Chapman, Michael [1970] Window (2015 remastered, expanded ed.)\08. A Scholarly Man.wav     Pre-gap length  0:00:03.74     Peak level 96.5 %     Extraction speed 7.2 X     Track quality 100.0 %     Test CRC 10D81AAE     Copy CRC 10D81AAE     Accurately ripped (confidence 4)  [6E9D618A]  (AR v2)     Copy OKTrack  9     Filename E:\Torrents of Autumn\Chapman, Michael [1970] Window (2015 remastered, expanded ed.)\09. She Came In Like the ''6.15'' and Made a Hole in the Wall.wav     Pre-gap length  0:00:01.43     Peak level 96.5 %     Extraction speed 6.3 X     Track quality 99.9 %     Test CRC 7C68B1D1     Copy CRC 7C68B1D1     Accurately ripped (confidence 4)  [7D1A5D75]  (AR v2)     Copy OKTrack 10     Filename E:\Torrents of Autumn\Chapman, Michael [1970] Window (2015 remastered, expanded ed.)\10. The Hobo's Lamentation [bonus track].wav     Pre-gap length  0:00:04.26     Peak level 96.5 %     Extraction speed 6.5 X     Track quality 100.0 %     Test CRC A4837D9B     Copy CRC A4837D9B     Accurately ripped (confidence 4)  [6BC6C70F]  (AR v2)     Copy OKTrack 11     Filename E:\Torrents of Autumn\Chapman, Michael [1970] Window (2015 remastered, expanded ed.)\11. Never in My Life [bonus track].wav     Pre-gap length  0:00:01.44     Peak level 96.3 %     Extraction speed 6.2 X     Track quality 100.0 %     Test CRC 07EB0945     Copy CRC 07EB0945     Accurately ripped (confidence 4)  [AC3DAFE2]  (AR v2)     Copy OKAll tracks accurately rippedNo errors occurredEnd of status report---- CUETools DB Plugin V2.1.6[CTDB TOCID: BcyILSpEs9_1PxGNA4esMj0ATRQ-] foundSubmit result: BcyILSpEs9_1PxGNA4esMj0ATRQ- has been confirmedTrack | CTDB Status  1   | (8/8) Accurately ripped  2   | (8/8) Accurately ripped  3   | (8/8) Accurately ripped  4   | (8/8) Accurately ripped  5   | (8/8) Accurately ripped  6   | (8/8) Accurately ripped  7   | (8/8) Accurately ripped  8   | (8/8) Accurately ripped  9   | (8/8) Accurately ripped 10   | (8/8) Accurately ripped 11   | (8/8) Accurately ripped==== Log checksum 2C2922B3D99149F365239DFACE63A940D07FBF319A6EBFA81CA0223762601A6F ====

Содержание индексной карты (.CUE)

REM GENRE FolkREM DATE 1970REM DISCID 960A3B0BREM COMMENT "ExactAudioCopy v1.3"PERFORMER "Michael Chapman"TITLE "Window (2015 remastered, expanded edition)"REM COMPOSER ""FILE "01. Lady on the Rocks,Song for September.wav" WAVE  TRACK 01 AUDIO    TITLE "Lady on the Rocks/Song for September"    PERFORMER "Michael Chapman"    REM COMPOSER "Michael Chapman"    INDEX 01 00:00:00FILE "02. Last Lady Song.wav" WAVE  TRACK 02 AUDIO    TITLE "Last Lady Song"    PERFORMER "Michael Chapman"    REM COMPOSER "Michael Chapman"    INDEX 01 00:00:00  TRACK 03 AUDIO    TITLE "Among the Trees"    PERFORMER "Michael Chapman"    REM COMPOSER "Michael Chapman"    INDEX 00 05:48:03FILE "03. Among the Trees.wav" WAVE    INDEX 01 00:00:00  TRACK 04 AUDIO    TITLE "An Old Man Remembers"    PERFORMER "Michael Chapman"    REM COMPOSER "Michael Chapman"    INDEX 00 04:41:10FILE "04. An Old Man Remembers.wav" WAVE    INDEX 01 00:00:00  TRACK 05 AUDIO    TITLE "In the Valley"    PERFORMER "Michael Chapman"    REM COMPOSER "Michael Chapman"    INDEX 00 03:01:64FILE "05. In the Valley.wav" WAVE    INDEX 01 00:00:00  TRACK 06 AUDIO    TITLE "First Lady Song"    PERFORMER "Michael Chapman"    REM COMPOSER "Michael Chapman"    INDEX 00 06:23:67FILE "06. First Lady Song.wav" WAVE    INDEX 01 00:00:00  TRACK 07 AUDIO    TITLE "Landships"    PERFORMER "Michael Chapman"    REM COMPOSER "Michael Chapman"    INDEX 00 00:56:03FILE "07. Landships.wav" WAVE    INDEX 01 00:00:00  TRACK 08 AUDIO    TITLE "A Scholarly Man"    PERFORMER "Michael Chapman"    REM COMPOSER "Michael Chapman"    INDEX 00 03:23:13FILE "08. A Scholarly Man.wav" WAVE    INDEX 01 00:00:00  TRACK 09 AUDIO    TITLE "She Came In Like the '6.15' and Made a Hole in the Wall"    PERFORMER "Michael Chapman"    REM COMPOSER "Michael Chapman"    INDEX 00 05:36:44FILE "09. She Came In Like the ''6.15'' and Made a Hole in the Wall.wav" WAVE    INDEX 01 00:00:00  TRACK 10 AUDIO    TITLE "The Hobo's Lamentation [bonus track]"    PERFORMER "Michael Chapman"    REM COMPOSER "Michael Chapman"    INDEX 00 03:28:36FILE "10. The Hobo's Lamentation [bonus track].wav" WAVE    INDEX 01 00:00:00  TRACK 11 AUDIO    TITLE "Never in My Life [bonus track]"    PERFORMER "Michael Chapman"    REM COMPOSER "Michael Chapman"    INDEX 00 02:07:34FILE "11. Never in My Life [bonus track].wav" WAVE    INDEX 01 00:00:00

Доп. информация

Tracks 10 and 11 are available only in this, very limited edition of 200 copies.

Об исполнителе (группе)

Since emerging from the folk scene in Yorkshire, England in 1967, guitarist, and singer Michael Chapman has gained a dual reputation as one of England’s finest original singer/songwriters and most restless guitar players, equally comfortable in folk, rock, free improvisation, global music styles, blues, and jazz. With over 40 albums to his credit, this former art and photography teacher has, in the 21st century, been embraced by a host of boundary-crossing younger musicians who credit his influence on their work including Thurston Moore, Steve Gunn, Ryley Walker, Meg Baird, and many more. No two albums in his catalog are alike, and, over different decades, certain recordings from his shelf have alternated as influential, beginning with his 1969 fingerpicking Brit folk classic Rainmaker and his 1970 singer/songwriter masterpiece Fully Qualified Survivor (featuring Mick Ronson on lead guitar). Later recordings, including 1976’s rock & roll outing Savage Amusement, his proto-new age 1987 offering Heartbeat, and his instrumental forays in the 21st century including the “guitar travelscapes” of Americana and Words Fail Me, as well as Pachyderm and The Resurrection and Revenge of the Clayton Peacock, showcase the full range of his playing, composing, and improvising styles.
Chapman attended art school in Leeds. After graduating, he worked as an art and photography teacher in Lancashire. Playing guitar form his teens on, he developed a style that wove jazz, folk, blues, and ragtime, and his repertoire at the time time was primarily comprised of jazz guitar standards. In the middle of the ’60s he began listening to the new wave of British folk revivalists such as Ralph McTell, Bert Jansch, Davy Graham, and John Renbourn. By adapting what he already knew to what he was learning, Chapman developed a distinctive playing style that incorporated all of his chosen styles as well as East Indian modalism.
He first appeared on the London and Cornwall folk music circuits in 1967, including at the Piper’s Folk Club in Penzance on a bill with John Martyn and Roy Harper. His incendiary live perfomances resonated not only with club audiences but also with A&R men. He accepted a contract offer from Harvest (EMI’s “underground” boutique label) that led to the release of his debut long-player Rainmaker in 1969. The album featured the support of Rick Kemp (who played bass with Chapman for many years) and Danny Thompson. Window followed in short order, with Fully Qualified Survivor completing a debut triptych that sent waves of critical appreciation through the music industry—influential BBC disc jockey John Peel supported Chapman whenever possible. Sales, however, did not match the critical acclaim for Chapman’s work, leaving Fully Qualified Survivor as a high point, with “Postcards of Scarborough” generally being the one cut most often remembered when Chapman is discussed.
After the release of Wrecked Again, Chapman parted company with Harvest, choosing to sign to Decca’s Deram subsidiary, where he altered course somewhat, adding electric guitar and harder rhythms to his work. The first result, Millstone Grit, offered Chapman’s trademark gloomy writing mixed with a couple of lively instrumentals, some almost experimental, and the country-styled “Expressway in the Rain.” Deal Gone Down, and the live Pleasures of the Street followed. Don Nix produced Savage Amusement, which reworked a couple of earlier songs; the album’s title would be used in the mid-’80s for a band featuring Chapman and Kemp.
Chapman’s Decca deal ended in 1977, and he began an association with Criminal Records the following year; both labels released versions of The Man Who Hated Mornings. Chapman then turned his hand to the release of a guitar instruction record entitled Playing Guitar the Easy Way in 1978. He continued to gig and record consistently, varying styles and sounds, sometimes working with a full group but more often working with Kemp alone. After the release of Heartbeat in 1987, Chapman experimented with self-released albums, and as of the 1997 release of Dreaming Out Loud, he was issuing albums at the rate of one every two years, continuing to attract high praise, if not great sales.
His prolific release schedule continued unabated in the 21st century with both song-based and instrumental albums, as well as numerous reissues of his catalog by various labels. The first notable entry in the new millennium was the instrumental offering Americana in 2000, which showcased Chapman’s fascination with, and mastery of, Southern blues, folk, and ragtime jazz styles. It was followed by a second collection—this one with masterful slide entries as well—entitled Americana II in 2002. A self-released album, 2005’s Plaindealer featured the guitarist playing solo or in small groups, performing original songs and folk standards. It was later reissued by Honest Jon’s.
Chapman toured with the No-Neck Blues Band and Jack Rose in 2006. Drenched in acid folk and free improvisation, he returned to England inspired and recorded the double-disc Words Fail Me, recorded completely solo on acoustic and electric guitars. He ripped through utterly rearranged older songs as well as brave new compositions in a 100-minute, live-in-the-studio performance with no overdubs. On 2007’s The Wedding Band, Chapman returned to all-electric guitar; it was his first digitally recorded release, while 2008’s Sweet Powder was drenched in sounds that reflected the blues, folk, and modern country music the guitarist loved, from R.L. Burnside to Steve Eagles to Neil Young and more. On 2010’s ambitious Wry Tree Drift, named after an old mine near his farm, he played both electric and acoustic guitars, performing folk ballads, languid instrumental dubs, dark electric blues, and solo guitar workouts.
In 2011, Chapman released the instrumental double set Train Song: Guitar Compositions, 1967-2010, which featured all newly recorded material. Later in the year, the guitarist issued his most expansive and controversial album, The Resurrection and Revenge of the Clayton Peacock (titled after a track on John Fahey’s 1965 offering The Transfiguration of Blind Joe Death). It featured two side-long improvisations involving drones, delay, and loop effects. It was issued by Blast First Petite as the first part of a trilogy. Its second part, Pachyderm, was released in 2012, followed by The Polar Bear in 2014; Blast First Petite announced plans to reissue the trilogy as a special box set. Also in 2012, a tribute album entitled Oh Michael, Look What You’ve Done: Friends Play Michael Chapman was released by Tompkins Square and featured performances from Hiss Golden Messenger, Meg Baird, Black Twig Piers, Maddy Prior, and more. In 2015, Chapman returned with a new album of guitar pieces, Fish. January 2017 saw the release of 50, his debut for Paradise of Bachelors, which found Chapman embracing past and present, with guest artists including celebrated British folksinger Bridget St. John and gifted indie rock guitarist Steve Gunn. The following year, Blast First Petite issued Live VPRO 71. Recorded by Dutch underground radio station VPRO on May 6 of 1971, it was the earliest known live recording of Chapman’s—some two years after Fully Qualified Survivor, his debut for Harvest. Accompanied on the date by bassist Rick Kemp, the audio disc contained a healthy selection of tunes from the show, but the release was also accompanied by a download card that contained video of the entire concert. Later in 2017 he issued the duet offering EB=MC2 with Israeli guitarist Ehud Banai. While Chapman basically lived on the road for most of 2018, he was able to enter Mwnci Studios in rural West Wales with a host of friends including Bridget St. John, cellist Sarah Smout, pedal steel legend BJ Cole, and guitarist/producer Steve Gunn. The finished album was titled True North and released by Paradise of Bachelors in February 2019. (Steven McDonald, AllMusic)

Об альбоме (сборнике)

One of the most understated but spectrally beautiful of all Michael Chapman’s albums, Window evidences just why producer Gus Dudgeon was in such demand during the early ’70s, as he allows the idiosyncratic Chapman to weave each and every one of his musical moods through the sequence, without the record ever appearing to lose its grip. At the time of release, most attention was on the closing craziness of “She Came in Like the ‘6:15’ and Made a Hole in the Wall,” as performed (says the sleeve) by the Massed Voices of the Dean Teagarden Singers, featuring the Screaming Skull, the Bombay Banger, and Arthur Dogg. However, there are equal (if less lunatic) joys to be drawn from the reflective “An Old Man Remembers,” while the opening “Lady on the Rocks/Song for September” pairing and the disused bookends of “First Lady Song” and “Last Lady Song” all rate among the young Chapman’s most engaging works. [In 2004 BGO reissued Window along with its sequel, Wrecked Again, as a two-CD set.] (Dave Thompson, AllMusic)

Состав

Michael Chapman: acoustic guitar and vocals
P. Harold Fatt: lead guitar
Richie Dharma: drums and tambourine
Rick Kemp: bass, maraccas and vocals
Johnny Van Derek: violin
Alex Atterson: pianoProduced by Gus Dudgeon

Чтобы скачать этот контент, Вам необходимо:
1. Скачать и установить торрент-клиент [клик для Windows], (для мобильного найдите на Play Маркет).
2. Кликнуть по [Скачать]


Внимание.
Если проверка ВЫ НЕ РОБОТ - не работает, значит Вы используете устаревший браузер.
Установите актуальный браузер и повторно кликните по [Скачать]
Безопасность: торрент-клиент разрешён АВ Касперского.

[mail.asmlocator.ru].t649200.torrent 
Торрент: Зарегистрирован [ 2019-07-07 09:30 ] · D1F39CECBB5E4502F86A6CA2B4F14D1404B8FDE8

Скачать .torrent

Скачать

17 KB

Статус: проверено
Скачан: 1 раз
Размер: 370 MB
terms.php
[Профиль] [ЛС]
Показать сообщения:    
Ответить на тему

Текущее время: 21-Окт 10:59

Часовой пояс: UTC ± 0



Вы не можете начинать темы
Вы не можете отвечать на сообщения
Вы не можете редактировать свои сообщения
Вы не можете удалять свои сообщения
Вы не можете голосовать в опросах
Вы не можете прикреплять файлы к сообщениям
Вы можете скачивать файлы
Верим фактам, а не вранью Путина! Факт, что Правительство ведёт Россию к истреблению.
Так как численность населения падает, даже не смотря на приток эмигрантов!
Русская нация вымирает и вырождается, смешиваясь с эмигрантами!
Факт, что военных и граждан предприятий заставляют голосовать за партию Единая Россия и Путина
ПОД СТРАХОМ УВОЛЬНЕНИЯ!
Нам не нужно Правительство, блокирующее личную жизнь, интернет, нарушающее сохранность данных.
Все эти действия финансируются за счёт народа!