[TR24][OF][FM] Люди Икс: Тёмный Феникс / X-Men: Dark Phoenix (by Hans Zimmer) - 2019 (Score)

Reply to topic
DL-List and Torrent activity
Size:  656 MB   |    Registered:  1 month 19 days   |    Completed:  0 times

Seeder not seen: Never

 
   
 
 
Author Message

star21 ®

Gender: Female

Longevity: 3 years 9 months

Posts: 551989

Location: Екатеринбург

Post 04-Jul-2019 03:05

[Quote]

Hans Zimmer - X-Men: Dark Phoenix Формат записи/Источник записи: [TR24][OF][FM]
Наличие водяных знаков: Нет
Год издания: 2019
Жанр: Score
Издатель (лейбл): Fox Music
Продолжительность: 01:07:55
Наличие сканов в содержимом раздачи: Только обложка альбома
Контейнер: FLAC (*.flac)
Тип рипа: tracks
Разрядность: 24/44.1
Формат: PCM
Количество каналов: 2.0
Источник (релизер): highresaudio.comТреклист
1. Gap
2. Dark
3. Frameshift
4. Amity
5. Intimate
6. Negative
7. Deletion
8. Reckless
9. Insertion
10. Coda

Лог проверки качества

foobar2000 1.4 / Dynamic Range Meter 1.1.1log date: 2019-06-07 22:57:05--------------------------------------------------------------------------------Analyzed: Hans Zimmer / X-Men: Dark Phoenix (Original Motion Picture Soundtrack)--------------------------------------------------------------------------------DR         Peak         RMS     Duration Track--------------------------------------------------------------------------------DR7        0.00 dB   -11.77 dB      8:08 01-GapDR10      -0.10 dB   -15.52 dB      4:28 02-DarkDR11      -0.10 dB   -16.91 dB      8:16 03-FrameshiftDR11      -4.62 dB   -20.62 dB      5:53 04-AmityDR7        0.00 dB   -10.53 dB     10:14 05-IntimateDR7       -0.09 dB   -10.90 dB      3:59 06-NegativeDR7        0.00 dB   -11.25 dB      4:52 07-DeletionDR7        0.00 dB   -10.97 dB      9:36 08-RecklessDR8        0.00 dB   -12.39 dB      7:57 09-InsertionDR12      -0.10 dB   -17.72 dB      4:41 10-Coda--------------------------------------------------------------------------------Number of tracks:  10Official DR value: DR9Samplerate:        44100 HzChannels:          2Bits per sample:   24Bitrate:           1201 kbpsCodec:             FLAC================================================================================

Об альбоме (сборнике)

The action, adventure, sci-fi movie, which is titled Dark Phoenix, will be released on 7 June 2019 in the USA. The movie attracts its audience with its soundtracks as well as the story of the movie. You can reach all the songs from great musicians such as Hans Zimmer.

To download the content you need:
1. Download and install torrent client [for Windows] or for mobile system
2. Click on [Download]
Attention.
If the test YOU are NOT a ROBOT - does not work, then You are using an outdated browser.
Install the current browser and click on [Download]
Security: torrent client is allowed by Kaspersky.

[asmlocator.ru].t648443.torrent 
Torrent: Registered [ 2019-07-04 03:05 ] · D21FA43DF4A1A492BE5CA35BF1669B8EE6832A70

Download .torrent

Download

14 KB

Status: checked
Completed: 0 times
Size: 656 MB
terms.php
[Profile] [PM]
Display posts:    
Reply to topic

Current time is: 23-Aug 22:02

All times are UTC ± 0



You cannot post new topics in this forum
You cannot reply to topics in this forum
You cannot edit your posts in this forum
You cannot delete your posts in this forum
You cannot vote in polls in this forum
You cannot attach files in this forum
You can download files in this forum