(Hip-Hop / Funk / Soul) [CD] Mark Ronson - Late Night Feelings - 2019, FLAC (tracks+.cue), lossless

Ответить на тему
Статистика раздачи
Размер:  258 MB   |    Зарегистрирован:  3 месяца 10 дней   |    Скачан:  0 раз

Полного источника не было: Никогда

 
   
 
 
Автор Сообщение

star21 ®

Пол: Женский

Стаж: 3 года 11 месяцев

Сообщений: 551988

Откуда: Екатеринбург

Создавать темы 03-Июл-2019 14:35

[Цитировать]

Mark Ronson / Late Night Feelings Жанр: Hip-Hop / Funk / Soul
Носитель: CD
Страна-производитель диска (релиза): UK
Год издания: 2019
Издатель (лейбл): RCA
Номер по каталогу: 19075938922
Аудиокодек: FLAC (*.flac)
Тип рипа: tracks+.cue
Продолжительность: 00:43:07
Источник: Получено по обмену
Наличие сканов в содержимом раздачи: нетТреклист:01. Late Night Prelude (01:29)
02. Late Night Feelings (04:11)
03. Find U Again (02:56)
04. Pieces of Us (03:26)
05. Knock Knock Knock (01:31)
06. Don't Leave Me Lonely (03:36)
07. When U Went Away (01:57)
08. Truth (03:48)
09. Nothing Breaks Like a Heart (03:37)
10. True Blue (05:48)
11. Why Hide (04:19)
12. 2 AM (03:18)
13. Spinning (03:11)

Лог создания рипа

X Lossless Decoder version 20181019 (151.1)XLD extraction logfile from 2019-06-29 12:54:29 -0400Mark Ronson / Late Night FeelingsUsed drive : HL-DT-ST DVDRAM GP65NS60 (revision PF00)Media type : Pressed CDRipper mode             : XLD Secure RipperDisable audio cache     : OK for the drive with a cache less than 1375KiBMake use of C2 pointers : NORead offset correction  : 6Max retry count         : 100Gap status              : Analyzed, Appended (except HTOA)TOC of the extracted CD     Track |   Start  |  Length  | Start sector | End sector    ---------------------------------------------------------        1  | 00:00:00 | 01:29:23 |         0    |     6697        2  | 01:29:23 | 04:11:02 |      6698    |    25524        3  | 05:40:25 | 02:56:31 |     25525    |    38755        4  | 08:36:56 | 03:26:31 |     38756    |    54236        5  | 12:03:12 | 01:31:43 |     54237    |    61104        6  | 13:34:55 | 03:36:28 |     61105    |    77332        7  | 17:11:08 | 01:57:70 |     77333    |    86177        8  | 19:09:03 | 03:48:31 |     86178    |   103308        9  | 22:57:34 | 03:37:08 |    103309    |   119591       10  | 26:34:42 | 05:48:36 |    119592    |   145727       11  | 32:23:03 | 04:19:17 |    145728    |   165169       12  | 36:42:20 | 03:18:25 |    165170    |   180044       13  | 40:00:45 | 03:11:16 |    180045    |   194385AccurateRip Summary    Disc not found in AccurateRip DB.All Tracks    Album gain               : -8.76 dB    Peak                     : 0.999969    Statistics        Read error                           : 0        Jitter error (maybe fixed)           : 0        Retry sector count                   : 0        Damaged sector count                 : 0Track 01    Filename : /Users/mydrive/Music/Mark Ronson - Late Night Feelings (2019) [FLAC]/01 Late Night Prelude.flac    Pre-gap length : 00:02:00    Track gain               : -4.95 dB    Peak                     : 0.974579    CRC32 hash (test run)    : BF5C4311    CRC32 hash               : BF5C4311    CRC32 hash (skip zero)   : 524C7651    AccurateRip v1 signature : 890D9683    AccurateRip v2 signature : 2FC76A48        ->Track not present in AccurateRip database.    Statistics        Read error                           : 0        Jitter error (maybe fixed)           : 0        Retry sector count                   : 0        Damaged sector count                 : 0Track 02    Filename : /Users/mydrive/Music/Mark Ronson - Late Night Feelings (2019) [FLAC]/02 Late Night Feelings.flac    Track gain               : -9.32 dB    Peak                     : 0.998840    CRC32 hash (test run)    : 3D28724D    CRC32 hash               : 3D28724D    CRC32 hash (skip zero)   : 44775238    AccurateRip v1 signature : 514E594F    AccurateRip v2 signature : C7333D72        ->Track not present in AccurateRip database.    Statistics        Read error                           : 0        Jitter error (maybe fixed)           : 0        Retry sector count                   : 0        Damaged sector count                 : 0Track 03    Filename : /Users/mydrive/Music/Mark Ronson - Late Night Feelings (2019) [FLAC]/03 Find U Again.flac    Track gain               : -9.30 dB    Peak                     : 0.947815    CRC32 hash (test run)    : C0D4F11B    CRC32 hash               : C0D4F11B    CRC32 hash (skip zero)   : B1DB2CAE    AccurateRip v1 signature : A3DE753B    AccurateRip v2 signature : 39A1A5AD        ->Track not present in AccurateRip database.    Statistics        Read error                           : 0        Jitter error (maybe fixed)           : 0        Retry sector count                   : 0        Damaged sector count                 : 0Track 04    Filename : /Users/mydrive/Music/Mark Ronson - Late Night Feelings (2019) [FLAC]/04 Pieces Of Us.flac    Track gain               : -6.45 dB    Peak                     : 0.998840    CRC32 hash (test run)    : AE4139F3    CRC32 hash               : AE4139F3    CRC32 hash (skip zero)   : CF85B5EF    AccurateRip v1 signature : 2467B8A1    AccurateRip v2 signature : 7D8ACC30        ->Track not present in AccurateRip database.    Statistics        Read error                           : 0        Jitter error (maybe fixed)           : 0        Retry sector count                   : 0        Damaged sector count                 : 0Track 05    Filename : /Users/mydrive/Music/Mark Ronson - Late Night Feelings (2019) [FLAC]/05 Knock Knock Knock.flac    Track gain               : -5.76 dB    Peak                     : 0.998840    CRC32 hash (test run)    : 45CABB08    CRC32 hash               : 45CABB08    CRC32 hash (skip zero)   : 57C31F93    AccurateRip v1 signature : 33CB42E1    AccurateRip v2 signature : C0453256        ->Track not present in AccurateRip database.    Statistics        Read error                           : 0        Jitter error (maybe fixed)           : 0        Retry sector count                   : 0        Damaged sector count                 : 0Track 06    Filename : /Users/mydrive/Music/Mark Ronson - Late Night Feelings (2019) [FLAC]/06 Don't Leave Me Lonely.flac    Track gain               : -8.21 dB    Peak                     : 0.998810    CRC32 hash (test run)    : 33D5AB30    CRC32 hash               : 33D5AB30    CRC32 hash (skip zero)   : FA7DD56C    AccurateRip v1 signature : 16F44382    AccurateRip v2 signature : 0D1A9D48        ->Track not present in AccurateRip database.    Statistics        Read error                           : 0        Jitter error (maybe fixed)           : 0        Retry sector count                   : 0        Damaged sector count                 : 0Track 07    Filename : /Users/mydrive/Music/Mark Ronson - Late Night Feelings (2019) [FLAC]/07 When U Went Away.flac    Track gain               : -6.49 dB    Peak                     : 0.998535    CRC32 hash (test run)    : E03C0643    CRC32 hash               : E03C0643    CRC32 hash (skip zero)   : DEA01B8E    AccurateRip v1 signature : 654B6145    AccurateRip v2 signature : 9FEC402F        ->Track not present in AccurateRip database.    Statistics        Read error                           : 0        Jitter error (maybe fixed)           : 0        Retry sector count                   : 0        Damaged sector count                 : 0Track 08    Filename : /Users/mydrive/Music/Mark Ronson - Late Night Feelings (2019) [FLAC]/08 Truth.flac    Track gain               : -9.63 dB    Peak                     : 0.998840    CRC32 hash (test run)    : C8A6B9FD    CRC32 hash               : C8A6B9FD    CRC32 hash (skip zero)   : 7BADC1BD    AccurateRip v1 signature : 3C603C55    AccurateRip v2 signature : B3EC38DD        ->Track not present in AccurateRip database.    Statistics        Read error                           : 0        Jitter error (maybe fixed)           : 0        Retry sector count                   : 0        Damaged sector count                 : 0Track 09    Filename : /Users/mydrive/Music/Mark Ronson - Late Night Feelings (2019) [FLAC]/09 Nothing Breaks Like A Heart.flac    Track gain               : -10.41 dB    Peak                     : 0.999969    CRC32 hash (test run)    : 4E2DB23C    CRC32 hash               : 4E2DB23C    CRC32 hash (skip zero)   : 3B22ECB4    AccurateRip v1 signature : 5C3131C5    AccurateRip v2 signature : 57BD58D4        ->Track not present in AccurateRip database.    Statistics        Read error                           : 0        Jitter error (maybe fixed)           : 0        Retry sector count                   : 0        Damaged sector count                 : 0Track 10    Filename : /Users/mydrive/Music/Mark Ronson - Late Night Feelings (2019) [FLAC]/10 True Blue.flac    Track gain               : -9.61 dB    Peak                     : 0.998840    CRC32 hash (test run)    : 5BE6882F    CRC32 hash               : 5BE6882F    CRC32 hash (skip zero)   : C08A5B4F    AccurateRip v1 signature : 301238CE    AccurateRip v2 signature : C893433D        ->Track not present in AccurateRip database.    Statistics        Read error                           : 0        Jitter error (maybe fixed)           : 0        Retry sector count                   : 0        Damaged sector count                 : 0Track 11    Filename : /Users/mydrive/Music/Mark Ronson - Late Night Feelings (2019) [FLAC]/11 Why Hide.flac    Track gain               : -10.03 dB    Peak                     : 0.998840    CRC32 hash (test run)    : E355118E    CRC32 hash               : E355118E    CRC32 hash (skip zero)   : 2A0C4C21    AccurateRip v1 signature : 52BBA639    AccurateRip v2 signature : BECF1C62        ->Track not present in AccurateRip database.    Statistics        Read error                           : 0        Jitter error (maybe fixed)           : 0        Retry sector count                   : 0        Damaged sector count                 : 0Track 12    Filename : /Users/mydrive/Music/Mark Ronson - Late Night Feelings (2019) [FLAC]/12 2AM.flac    Track gain               : -6.57 dB    Peak                     : 0.998840    CRC32 hash (test run)    : 8BD43727    CRC32 hash               : 8BD43727    CRC32 hash (skip zero)   : A6E7BD86    AccurateRip v1 signature : 0480485F    AccurateRip v2 signature : 6BE3AC6B        ->Track not present in AccurateRip database.    Statistics        Read error                           : 0        Jitter error (maybe fixed)           : 0        Retry sector count                   : 0        Damaged sector count                 : 0Track 13    Filename : /Users/mydrive/Music/Mark Ronson - Late Night Feelings (2019) [FLAC]/13 Spinning.flac    Track gain               : -6.83 dB    Peak                     : 0.974823    CRC32 hash (test run)    : C86CA238    CRC32 hash               : C86CA238    CRC32 hash (skip zero)   : E6053E55    AccurateRip v1 signature : 60C74B37    AccurateRip v2 signature : BBD92FC5        ->Track not present in AccurateRip database.    Statistics        Read error                           : 0        Jitter error (maybe fixed)           : 0        Retry sector count                   : 0        Damaged sector count                 : 0No errors occurredEnd of status report-----BEGIN XLD SIGNATURE-----kcWnBpQYd6dcLPksjYG_RL3OmOAYBJZAJ2MGp47vUr99tWabs2lpQct5_oZcKRTwRvALHr8MjV5Bfav8NfORoOs5VfreTETt4Zn96bS-----END XLD SIGNATURE-----

Содержание индексной карты (.CUE)

TITLE "Late Night Feelings"PERFORMER "Mark Ronson"CATALOG 0190759389225REM GENRE "Pop"REM DATE "2019"REM DISCNUMBER 1REM TOTALDISCS 1REM DISCID 9B0A1F0DREM REPLAYGAIN_ALBUM_GAIN -8.76 dBREM REPLAYGAIN_ALBUM_PEAK 0.999969FILE "01 Late Night Prelude.flac" WAVE  TRACK 01 AUDIO    TITLE "Late Night Prelude"    PERFORMER "Mark Ronson"    ISRC GBARL1900427    REM REPLAYGAIN_TRACK_GAIN -4.95 dB    REM REPLAYGAIN_TRACK_PEAK 0.974579    INDEX 01 00:00:00FILE "02 Late Night Feelings.flac" WAVE  TRACK 02 AUDIO    TITLE "Late Night Feelings"    PERFORMER "Mark Ronson feat. Lykke Li"    ISRC GBARL1900428    REM REPLAYGAIN_TRACK_GAIN -9.32 dB    REM REPLAYGAIN_TRACK_PEAK 0.998840    INDEX 01 00:00:00FILE "03 Find U Again.flac" WAVE  TRACK 03 AUDIO    TITLE "Find U Again"    PERFORMER "Mark Ronson feat. Camila Cabello"    ISRC GBARL1900429    REM REPLAYGAIN_TRACK_GAIN -9.30 dB    REM REPLAYGAIN_TRACK_PEAK 0.947815    INDEX 01 00:00:00FILE "04 Pieces Of Us.flac" WAVE  TRACK 04 AUDIO    TITLE "Pieces Of Us"    PERFORMER "Mark Ronson feat. King Princess"    ISRC GBARL1900430    REM REPLAYGAIN_TRACK_GAIN -6.45 dB    REM REPLAYGAIN_TRACK_PEAK 0.998840    INDEX 01 00:00:00FILE "05 Knock Knock Knock.flac" WAVE  TRACK 05 AUDIO    TITLE "Knock Knock Knock"    PERFORMER "Mark Ronson feat. Yebba"    ISRC GBARL1900431    REM REPLAYGAIN_TRACK_GAIN -5.76 dB    REM REPLAYGAIN_TRACK_PEAK 0.998840    INDEX 01 00:00:00FILE "06 Don't Leave Me Lonely.flac" WAVE  TRACK 06 AUDIO    TITLE "Don't Leave Me Lonely"    PERFORMER "Mark Ronson feat. Yebba"    ISRC GBARL1900432    REM REPLAYGAIN_TRACK_GAIN -8.21 dB    REM REPLAYGAIN_TRACK_PEAK 0.998810    INDEX 01 00:00:00FILE "07 When U Went Away.flac" WAVE  TRACK 07 AUDIO    TITLE "When U Went Away"    PERFORMER "Mark Ronson feat. Yebba"    ISRC GBARL1900433    REM REPLAYGAIN_TRACK_GAIN -6.49 dB    REM REPLAYGAIN_TRACK_PEAK 0.998535    INDEX 01 00:00:00FILE "08 Truth.flac" WAVE  TRACK 08 AUDIO    TITLE "Truth"    PERFORMER "Mark Ronson feat. Alicia & The Last Artful, Dodgr"    ISRC GBARL1900434    REM REPLAYGAIN_TRACK_GAIN -9.63 dB    REM REPLAYGAIN_TRACK_PEAK 0.998840    INDEX 01 00:00:00FILE "09 Nothing Breaks Like A Heart.flac" WAVE  TRACK 09 AUDIO    TITLE "Nothing Breaks Like A Heart"    PERFORMER "Mark Ronson feat. Miley Cyrus"    ISRC GBARL1801571    REM REPLAYGAIN_TRACK_GAIN -10.41 dB    REM REPLAYGAIN_TRACK_PEAK 0.999969    INDEX 01 00:00:00FILE "10 True Blue.flac" WAVE  TRACK 10 AUDIO    TITLE "True Blue"    PERFORMER "Mark Ronson feat. Angel Olsen"    ISRC GBARL1900435    REM REPLAYGAIN_TRACK_GAIN -9.61 dB    REM REPLAYGAIN_TRACK_PEAK 0.998840    INDEX 01 00:00:00FILE "11 Why Hide.flac" WAVE  TRACK 11 AUDIO    TITLE "Why Hide"    PERFORMER "Mark Ronson feat. Diana Gordon"    ISRC GBARL1900436    REM REPLAYGAIN_TRACK_GAIN -10.03 dB    REM REPLAYGAIN_TRACK_PEAK 0.998840    INDEX 01 00:00:00FILE "12 2AM.flac" WAVE  TRACK 12 AUDIO    TITLE "2AM"    PERFORMER "Mark Ronson feat. Lykke Li"    ISRC GBARL1900437    REM REPLAYGAIN_TRACK_GAIN -6.57 dB    REM REPLAYGAIN_TRACK_PEAK 0.998840    INDEX 01 00:00:00FILE "13 Spinning.flac" WAVE  TRACK 13 AUDIO    TITLE "Spinning"    PERFORMER "Mark Ronson feat. Ilsey"    ISRC GBARL1900438    REM REPLAYGAIN_TRACK_GAIN -6.83 dB    REM REPLAYGAIN_TRACK_PEAK 0.974823    INDEX 01 00:00:00

Чтобы скачать этот контент, Вам необходимо:
1. Скачать и установить торрент-клиент [клик для Windows], (для мобильного найдите на Play Маркет).
2. Кликнуть по [Скачать]


Внимание.
Если проверка ВЫ НЕ РОБОТ - не работает, значит Вы используете устаревший браузер.
Установите актуальный браузер и повторно кликните по [Скачать]
Безопасность: торрент-клиент разрешён АВ Касперского.

[asmlocator.ru].t648304.torrent 
Торрент: Зарегистрирован [ 2019-07-03 14:35 ] · F2C4DC67A9753454787BDC8477DA7895E448E4A2

Скачать .torrent

Скачать

11 KB

Статус: проверено
Скачан: 0 раз
Размер: 258 MB
terms.php
[Профиль] [ЛС]
Показать сообщения:    
Ответить на тему

Текущее время: 14-Окт 09:08

Часовой пояс: UTC ± 0



Вы не можете начинать темы
Вы не можете отвечать на сообщения
Вы не можете редактировать свои сообщения
Вы не можете удалять свои сообщения
Вы не можете голосовать в опросах
Вы не можете прикреплять файлы к сообщениям
Вы можете скачивать файлы
Верим фактам, а не вранью Путина! Факт, что Правительство ведёт Россию к истреблению.
Так как численность населения падает, даже не смотря на приток эмигрантов!
Русская нация вымирает и вырождается, смешиваясь с эмигрантами!
Факт, что военных и граждан предприятий заставляют голосовать за партию Единая Россия и Путина
ПОД СТРАХОМ УВОЛЬНЕНИЯ!
Нам не нужно Правительство, блокирующее личную жизнь, интернет, нарушающее сохранность данных.
Все эти действия финансируются за счёт народа!