Рассвет (Павел Сидоров) [2019, Россия, ужасы, триллер, WEB-DL 1080p] Original Rus

Ответить на тему
Статистика раздачи
Размер:  3,4 GB   |    Зарегистрирован:  3 месяца 25 дней   |    Скачан:  1 раз

Полного источника не было: 30 минут

 
   
 
 
Автор Сообщение

star21 ®

Пол: Женский

Стаж: 3 года 11 месяцев

Сообщений: 551988

Откуда: Екатеринбург

Создавать темы 19-Июн-2019 04:45

[Цитировать]

Рассвет Страна: Россия
Студия: Karoprokat
Жанр: ужасы, триллер
Год выпуска: 2019
Продолжительность: 01:37:41Перевод: Не требуется
Субтитры: нет
Оригинальная аудиодорожка: русскийРежиссёр: Павел СидоровВ ролях: Оксана Акиньшина, Александра Дроздова, Александр Молочников, Анна Слю, Олег Васильков, Кузьма Котрелев, Анастасия Куимова, Валерий Кухарешин, Мирослав Пенцов
Описание: У главной героини при загадочных обстоятельствах погибает брат. Девушку начинают преследовать реалистичные кошмары, и она отправляется в институт сомнологии, где ее вместе с другими пациентами погружают в совместное осознанное сновидение. Но после наступления рассвета они проснутся совсем в другой реальности, которая страшнее любого кошмара…Кинопоиск
SampleТип релиза: WEB-DL 1080p - ELEKTRI4KA
Контейнер: MKVВидео: MPEG4 AVC Video, H264, 2.40:1, 1908x792, 23.976 fps, 4500 kbps
Аудио: Russian (AC3, 6 ch, 384 kbps, 16 bits, 48.0 KHz) - оригинал

MediaInfo

General
Unique ID : 229422394563534621299524786669696262940 (0xAC99255DA75EF96F91395B763007231C)
Complete name : D:\Dawn.2019.WEB-DL.1080p.ELEKTRI4KA.UNIONGANG.mkv
Format : Matroska
Format version : Version 2
File size : 3.40 GiB
Duration : 1 h 37 min
Overall bit rate : 4 983 kb/s
Movie name : Dawn.2019.ELEKTRI4KA.UNIONGANG
Encoded date : UTC 2019-05-28 20:38:08
Writing application : mkvmerge v7.8.0 ('River Man') 32bit built on Apr 3 2015 12:11:22
Writing library : libebml v1.3.1 + libmatroska v1.4.2Video
ID : 2
Format : AVC
Format/Info : Advanced Video Codec
Format profile : High@L4
Format settings : CABAC / 5 Ref Frames
Format settings, CABAC : Yes
Format settings, ReFrames : 5 frames
Codec ID : V_MPEG4/ISO/AVC
Duration : 1 h 37 min
Bit rate : 4 500 kb/s
Width : 1 908 pixels
Height : 792 pixels
Display aspect ratio : 2.40:1
Frame rate mode : Constant
Frame rate : 23.976 (24000/1001) FPS
Color space : YUV
Chroma subsampling : 4:2:0
Bit depth : 8 bits
Scan type : Progressive
Bits/(Pixel*Frame) : 0.124
Stream size : 3.07 GiB (90%)
Language : English
Default : Yes
Forced : No
Color range : Limited
Color primaries : BT.709
Transfer characteristics : BT.709
Matrix coefficients : BT.709Audio
ID : 1
Format : AC-3
Format/Info : Audio Coding 3
Codec ID : A_AC3
Duration : 1 h 37 min
Bit rate mode : Constant
Bit rate : 384 kb/s
Channel(s) : 6 channels
Channel positions : Front: L C R, Side: L R, LFE
Sampling rate : 48.0 kHz
Frame rate : 31.250 FPS (1536 SPF)
Bit depth : 16 bits
Compression mode : Lossy
Stream size : 268 MiB (8%)
Title : RUS.ELEKTRI4KA.UNIONGANG
Language : Russian
Service kind : Complete Main
Default : Yes
Forced : NoMenu
00:00:00.000 : en:1
00:03:53.000 : en:2
00:13:33.000 : en:3
00:23:19.000 : en:4
00:32:03.000 : en:5
00:42:42.000 : en:6
00:52:23.000 : en:7
01:02:26.000 : en:8
01:12:23.000 : en:9
01:22:04.000 : en:10
01:33:36.000 : en:11[/pre]

Скриншоты


Чтобы скачать этот контент, Вам необходимо:
1. Скачать и установить торрент-клиент [клик для Windows], (для мобильного найдите на Play Маркет).
2. Кликнуть по [Скачать]


Внимание.
Если проверка ВЫ НЕ РОБОТ - не работает, значит Вы используете устаревший браузер.
Установите актуальный браузер и повторно кликните по [Скачать]
Безопасность: торрент-клиент разрешён АВ Касперского.

[asmlocator.ru].t646053.torrent 
Торрент: Зарегистрирован [ 2019-06-19 04:45 ] · AE5D40705D0B090F0CD51743CCBA8905B86017CD

Скачать .torrent

Скачать

18 KB

Статус: проверено
Скачан: 1 раз
Размер: 3,4 GB
terms.php
[Профиль] [ЛС]
Показать сообщения:    
Ответить на тему

Текущее время: 14-Окт 08:25

Часовой пояс: UTC ± 0



Вы не можете начинать темы
Вы не можете отвечать на сообщения
Вы не можете редактировать свои сообщения
Вы не можете удалять свои сообщения
Вы не можете голосовать в опросах
Вы не можете прикреплять файлы к сообщениям
Вы можете скачивать файлы
Верим фактам, а не вранью Путина! Факт, что Правительство ведёт Россию к истреблению.
Так как численность населения падает, даже не смотря на приток эмигрантов!
Русская нация вымирает и вырождается, смешиваясь с эмигрантами!
Факт, что военных и граждан предприятий заставляют голосовать за партию Единая Россия и Путина
ПОД СТРАХОМ УВОЛЬНЕНИЯ!
Нам не нужно Правительство, блокирующее личную жизнь, интернет, нарушающее сохранность данных.
Все эти действия финансируются за счёт народа!