Marc Bolan (T. Rex )- The Final Word./Марк Болан-Последнее слово/( русские субтитры) [2007, Rock/Documentary, DVDRip]

Ответить на тему
Статистика раздачи
Размер:  1,38 GB   |    Зарегистрирован:  4 месяца 11 дней   |    Скачан:  2 раза

Полного источника не было: 50 минут

 
   
 
 
Автор Сообщение

star21 ®

Пол: Женский

Стаж: 3 года 11 месяцев

Сообщений: 551988

Откуда: Екатеринбург

Создавать темы 02-Июн-2019 17:45

[Цитировать]

Marc Bolan (T. Rex )- The Final Word Жанр: Rock/Documentary
Продолжительность: 01:17:43.
Год выпуска: 2007 г.
Описание: Документальный фильм о жизни и творчестве Марка Болана, первоначально показан на BBC 4, был приурочен в ознаменование 30-летия трагической гибели музыканта в автокатастрофе. Архивные материалы, фотографии, и документальные материалы.(исходником любезно поделился YWM1957 )
Над РУССКИМИ субтитрами трудился наш форумчанин Fragile59 ) Starring:
Marc Bolan
Steve Harley
Gloria Jones
Lorna Luft
Suzi Quatro
Zandra Rhodes
Roger Taylor
Tony Visconti
Треклист:
Get It On
Deborah
Jeepster

Доп. информация: по видео

скрытый текст

олное имя Marc Bolan - The Final Word (русские субтитры)(2007).avi
Формат : AVI
Формат/Информация : Audio Video Interleave
Профиль формата : OpenDML
Размер файла : 1,38 Гбайт
Продолжительность : 1 ч. 17 м.
Общий поток : 2550 Кбит/сек
Программа кодирования : Lavf51.12.1Видео
Идентификатор : 0
Формат : xvid
Идентификатор кодека : xvid
Продолжительность : 1 ч. 17 м.
Битрейт : 2345 Кбит/сек
Ширина : 688 пикселей
Высота : 384 пикселя
Соотношение сторон : 16:9
Частота кадров : 25,000 кадров/сек
Бит/(Пиксели*Кадры) : 0.355
Размер потока : 1,27 Гбайт (92%)Аудио
Идентификатор : 1
Формат : AC-3
Формат/Информация : Audio Coding 3
Расширение режима : CM (complete main)
Параметр Endianness формата : Big
Идентификатор кодека : 2000
Продолжительность : 1 ч. 17 м.
Вид битрейта : Постоянный
Битрейт : 192 Кбит/сек
Каналы : 2 канала
Расположение каналов : Front: L R
Частота : 48,0 КГц
Битовая глубина : 16 бит
Метод сжатия : С потерями
Размер потока : 107 Мбайт (8%)
Выравнивание : Соединение по промежуткам
Продолжительность промежутка : 32 мс. (0,80 видеокадр)
Время предзагрузки промежутка : 32 мс.
Источник: собственный рип
Cсылка https://rutracker.org/forum/viewtopic.php?t=2414743
Качество: DVDRip
Контейнер: AVI
Видео кодек: XviD
Аудио кодек: AC3
Видео: 688x384 (1.79:1), 25 fps, XviD build 63 ~2350 kbps avg, 0.36 bit/pixel
Аудио: 48 kHz, AC3 Dolby Digital, 2/0 (L,R) ch, ~192.00 kbps avg

Скриншоты

Мои другие раздачи 1 - https://rutracker.org/forum/tracker.php?rid=14861751
Мои другие раздачи 2- https://rutracker.org/forum/tracker.php?rid=26740408Приятного просмотра!

Чтобы скачать этот контент, Вам необходимо:
1. Скачать и установить торрент-клиент [клик для Windows], (для мобильного найдите на Play Маркет).
2. Кликнуть по [Скачать]


Внимание.
Если проверка ВЫ НЕ РОБОТ - не работает, значит Вы используете устаревший браузер.
Установите актуальный браузер и повторно кликните по [Скачать]
Безопасность: торрент-клиент разрешён АВ Касперского.

[asmlocator.ru].t641270.torrent 
Торрент: Зарегистрирован [ 2019-06-02 17:45 ] · B135F17FB1D236E5F801D1DF8AED67A65375F6B1

Скачать .torrent

Скачать

14 KB

Статус: проверено
Скачан: 2 раз
Размер: 1,38 GB
terms.php
[Профиль] [ЛС]
Показать сообщения:    
Ответить на тему

Текущее время: 14-Окт 07:45

Часовой пояс: UTC ± 0



Вы не можете начинать темы
Вы не можете отвечать на сообщения
Вы не можете редактировать свои сообщения
Вы не можете удалять свои сообщения
Вы не можете голосовать в опросах
Вы не можете прикреплять файлы к сообщениям
Вы можете скачивать файлы
Верим фактам, а не вранью Путина! Факт, что Правительство ведёт Россию к истреблению.
Так как численность населения падает, даже не смотря на приток эмигрантов!
Русская нация вымирает и вырождается, смешиваясь с эмигрантами!
Факт, что военных и граждан предприятий заставляют голосовать за партию Единая Россия и Путина
ПОД СТРАХОМ УВОЛЬНЕНИЯ!
Нам не нужно Правительство, блокирующее личную жизнь, интернет, нарушающее сохранность данных.
Все эти действия финансируются за счёт народа!