Еноты. Спецэпизоды / The Raccoons Specials / Сезон: 0 / Серии: 5 из 5 (Кевин Джиллис) [1980-1984, Канада, Приключения, семейный, DVDRemux] VO

Ответить на тему
Статистика раздачи
Размер:  6,48 GB   |    Зарегистрирован:  5 месяцев 14 дней   |    Скачан:  0 раз

Полного источника не было: Никогда

 
   
 
 
Автор Сообщение

star21 ®

Пол: Женский

Стаж: 3 года 11 месяцев

Сообщений: 551988

Откуда: Екатеринбург

Создавать темы 29-Апр-2019 10:40

[Цитировать]

Еноты. Спецэпизоды / The Raccoons Specials Страна: Канада
Жанр: Приключения, семейный
Продолжительность серии: 00:24:00
Год выпуска: 1980-1984
Перевод: Одноголосый закадровый
Русские субтитры: нетРежиссёр: Кевин Джиллис
Описание: Действия разворачиваются в Вечно-зелёном лесу, где живёт главный герой сериала енот Берт и его друзья, Ральф и Мелисса, а также другие животные. Жизнь обитателей леса была бы беззаботной, если бы не богач Сирил Снир, который время от времени пытается использовать лес для личной наживы, и его подручные, трое свинов. Сын Снира - Сэдрик, который дружит с обитателями Вечно-зелёного леса, всегда старается предупредить их об очередной опасности, нависшей над лесом из-за происков своего папаши.Список серий:
1. The Christmas Raccoons
2. The Raccoons On Ise
3. The Raccoons and the Lost Star Part 1
4. The Raccoons and the Lost Star Part 2
5. The Raccoons Let's DanceДоп. информация: Спецэпизоды мультсериала Еноты предваряют оригинальный мультсериал. По сути, каждый эпизод был снят с разницей в один год. В данной раздаче собраны все 5 эпизодов (по факту 4 - третий эпизод разделён на два). Проект собран из оригинального немецкого DVD, откуда были взяты исходные видео и немецкий дубляж. Видео отличается от оригинальных, так как в него добавлена заставка, как в мультсериале, а сами серии обрезаны в разных местах. Русский одноголосый перевод (при этом - очень качественный) от RedRussian1337 на 4 эпизода из пяти, на последний эпизод перевода нет, и, фактически, он там особо не нужен. Английские оригинальные дорожки на все эпизоды. Все дорожки синхронизированы и сведены в Sony Vegas. На интро звук взят из английской дорожки. В эпизоде "The Raccoons and the Lost Star Part 2", из-за отсутствия отдельного файла на вторую часть, на превью "в предыдущей серии" наложена музыка, звучащая в этом превью в немецкой дорожке, но без слов.Качество: DVDRemux
Формат: MKV
Видео: PAL, 4:3
Аудио: Русский, RedRussian1337, AC-3, 192 kbps
Аудио 2: Английский, AC-3, 192 kbps
Аудио 3: Немецкий, AC-3, 192 kbps
Субтитры: отсутствуют

Подробные технические данные

GeneralUnique ID                   : 192064939618622560147657962987285584224 (0x907E5CA20F6C7B9E2014CCF7EEEF1960)Complete name               : D:\Загрузки\The Raccoons Specials\Special 1 - The Christmas Raccoons.mkvFormat                      : MatroskaFormat version              : Version 4 / Version 2File size                   : 1.23 GiBDuration                    : 23 min 14 sOverall bit rate mode       : VariableOverall bit rate            : 7 581 kb/sEncoded date                : UTC 2019-03-29 18:39:38Writing application         : mkvmerge v30.1.0 ('Forever And More') 64-bitWriting library             : libebml v1.3.6 + libmatroska v1.4.9VideoID                          : 1Format                      : MPEG VideoFormat version              : Version 2Format profile              : Main@MainFormat settings             : BVOPFormat settings, BVOP       : YesFormat settings, Matrix     : DefaultFormat settings, GOP        : M=3, N=12Format settings, picture st : FrameCodec ID                    : V_MPEG2Codec ID/Info               : MPEG 1 or 2 VideoDuration                    : 23 min 14 sBit rate mode               : VariableBit rate                    : 7 000 kb/sWidth                       : 720 pixelsHeight                      : 576 pixelsDisplay aspect ratio        : 4:3Frame rate mode             : ConstantFrame rate                  : 25.000 FPSStandard                    : PALColor space                 : YUVChroma subsampling          : 4:2:0Bit depth                   : 8 bitsScan type                   : InterlacedScan order                  : Top Field FirstCompression mode            : LossyBits/(Pixel*Frame)          : 0.675Time code of first frame    : 00:00:00:00Time code source            : Group of pictures headerGOP, Open/Closed            : ClosedStream size                 : 1.14 GiB (92%)Default                     : YesForced                      : NoAudio #1ID                          : 2Format                      : AC-3Format/Info                 : Audio Coding 3Codec ID                    : A_AC3Duration                    : 23 min 14 sBit rate mode               : ConstantBit rate                    : 192 kb/sChannel(s)                  : 2 channelsChannel positions           : Front: L RSampling rate               : 48.0 kHzFrame rate                  : 31.250 FPS (1536 SPF)Bit depth                   : 16 bitsCompression mode            : LossyStream size                 : 31.9 MiB (3%)Title                       : RedRussian1337Language                    : RussianService kind                : Complete MainDefault                     : YesForced                      : NoAudio #2ID                          : 3Format                      : AC-3Format/Info                 : Audio Coding 3Codec ID                    : A_AC3Duration                    : 23 min 14 sBit rate mode               : ConstantBit rate                    : 192 kb/sChannel(s)                  : 2 channelsChannel positions           : Front: L RSampling rate               : 48.0 kHzFrame rate                  : 31.250 FPS (1536 SPF)Bit depth                   : 16 bitsCompression mode            : LossyStream size                 : 31.9 MiB (3%)Language                    : EnglishService kind                : Complete MainDefault                     : NoForced                      : NoAudio #3ID                          : 4Format                      : AC-3Format/Info                 : Audio Coding 3Codec ID                    : A_AC3Duration                    : 23 min 14 sBit rate mode               : ConstantBit rate                    : 192 kb/sChannel(s)                  : 2 channelsChannel positions           : Front: L RSampling rate               : 48.0 kHzFrame rate                  : 31.250 FPS (1536 SPF)Bit depth                   : 16 bitsCompression mode            : LossyStream size                 : 31.9 MiB (3%)Language                    : GermanService kind                : Complete MainDefault                     : NoForced                      : No

Скриншоты

Предыдущие и альтернативные раздачи

Чтобы скачать этот контент, Вам необходимо:
1. Скачать и установить торрент-клиент [клик для Windows], (для мобильного найдите на Play Маркет).
2. Кликнуть по [Скачать]


Внимание.
Если проверка ВЫ НЕ РОБОТ - не работает, значит Вы используете устаревший браузер.
Установите актуальный браузер и повторно кликните по [Скачать]
Безопасность: торрент-клиент разрешён АВ Касперского.

[asmlocator.ru].t633773.torrent 
Торрент: Зарегистрирован [ 2019-04-29 10:40 ] · 0D547CF53DFD347D71848372B21E23BD81B51B9E

Скачать .torrent

Скачать

17 KB

Статус: проверено
Скачан: 0 раз
Размер: 6,48 GB
terms.php
[Профиль] [ЛС]
Показать сообщения:    
Ответить на тему

Текущее время: 14-Окт 09:21

Часовой пояс: UTC ± 0



Вы не можете начинать темы
Вы не можете отвечать на сообщения
Вы не можете редактировать свои сообщения
Вы не можете удалять свои сообщения
Вы не можете голосовать в опросах
Вы не можете прикреплять файлы к сообщениям
Вы можете скачивать файлы
Верим фактам, а не вранью Путина! Факт, что Правительство ведёт Россию к истреблению.
Так как численность населения падает, даже не смотря на приток эмигрантов!
Русская нация вымирает и вырождается, смешиваясь с эмигрантами!
Факт, что военных и граждан предприятий заставляют голосовать за партию Единая Россия и Путина
ПОД СТРАХОМ УВОЛЬНЕНИЯ!
Нам не нужно Правительство, блокирующее личную жизнь, интернет, нарушающее сохранность данных.
Все эти действия финансируются за счёт народа!