[DTSCD][UP] Пикник - Левитация - 2018 (Rock)

Ответить на тему
Статистика раздачи
Размер:  873 MB   |    Зарегистрирован:  5 месяцев 21 день   |    Скачан:  2 раза

Полного источника не было: 1 час 5 минут

 
   
 
 
Автор Сообщение

star21 ®

Пол: Женский

Стаж: 3 года 11 месяцев

Сообщений: 551988

Откуда: Екатеринбург

Создавать темы 23-Апр-2019 03:50

[Цитировать]

Пикник / Левитация Формат записи/Источник записи: [DTSCD][UP]
Наличие водяных знаков: Нет
Год издания/переиздания диска: 2018
Жанр: Rock
Продолжительность: 00:47:22; 00:38:28
Наличие сканов в содержимом раздачи: Только обложка альбомаТреклист:
I отделение
1. Intro
2. Летает голова то вверх, то вниз
3. Мракобесие и джаз
4. Нет берегов
5. Египтянин
6. Парню 90 лет
7. Лакомо и ломко
8. Кукла из папье-маше
9. Театр абсурда
10. От Кореи до Карелии
11. Лихие пришли временаII отделение
1. Intro
2. Чужестранец
3. Последний из могикан
4. У шамана три руки
5. Фиолетово-черный
6. Говорит и показывает
7. Из мышеловки
8. Ой, да не вечер…
9. Праздник
10. Там на самом на краю землиКонтейнер: Wav
Тип рипа: image+.cueРазрядность: 16/44,1
Формат: DTS
Количество каналов: 5.1

Лог проверки качества

foobar2000 1.4.1 / Dynamic Range Meter 1.1.1log date: 2019-04-09 17:08:18--------------------------------------------------------------------------------Analyzed: Пикник / Левитация--------------------------------------------------------------------------------DR         Peak         RMS     Duration Track--------------------------------------------------------------------------------DR12      -0.06 dB   -17.50 dB      1:50 01-Intro (DTS)DR9       -0.19 dB   -10.34 dB      4:59 02-Летает голова то вверх, то вниз (DTS)DR10      -0.05 dB   -11.84 dB      3:58 03-Мракобесие и джаз (DTS)DR9       -0.04 dB   -12.08 dB      5:12 04-Нет берегов (DTS)DR10      -0.30 dB   -12.63 dB      5:12 05-Египтянин (DTS)DR9       -0.04 dB   -10.55 dB      4:11 06-Парню 90 лет (DTS)DR10      -0.02 dB   -12.53 dB      4:41 07-Лакомо и ломко (DTS)DR8        0.00 dB    -9.85 dB      4:43 08-Кукла из папье-маше (DTS)DR9        0.00 dB   -11.50 dB      3:50 09-Театр абсурда (DTS)DR10       0.00 dB   -11.77 dB      4:53 10-От Кореи до Карелии (DTS)DR9        0.00 dB   -10.70 dB      4:13 11-Лихие пришли времена (DTS)--------------------------------------------------------------------------------Number of tracks:  11Official DR value: DR9foobar2000 1.4.1 / Dynamic Range Meter 1.1.1log date: 2019-04-09 17:09:17--------------------------------------------------------------------------------Analyzed: Пикник / Левитация--------------------------------------------------------------------------------DR         Peak         RMS     Duration Track--------------------------------------------------------------------------------DR10      -0.04 dB   -14.42 dB      1:09 01-Intro (DTS)DR9       -0.07 dB   -10.66 dB      3:54 02-Чужестранец (DTS)DR9        0.00 dB   -11.13 dB      5:12 03-Последний из могикан (DTS)DR10      -0.11 dB   -12.03 dB      3:31 04-У шамана три руки (DTS)DR9       -0.03 dB   -11.93 dB      4:12 05-Фиолетово-черный (DTS)DR8       -0.03 dB    -9.34 dB      4:20 06-Говорит и показывает (DTS)DR9       -0.06 dB   -11.74 dB      4:32 07-Из мышеловки (DTS)DR9       -0.08 dB   -10.88 dB      4:35 08-Ой, да не вечер... (DTS)DR8       -0.02 dB   -10.14 dB      4:52 09-Праздник (DTS)DR9       -0.07 dB   -11.71 dB      2:11 10-Там на самом на краю земли (DTS)--------------------------------------------------------------------------------Number of tracks:  10Official DR value: DR9
Метод получения апмикса: Adobe Audition: fft фильтр, экстрактор центрального канала; Izotop Ozone.
Источник (релизер): DamirHaan
Источник рипа: DimStn

Чтобы скачать этот контент, Вам необходимо:
1. Скачать и установить торрент-клиент [клик для Windows], (для мобильного найдите на Play Маркет).
2. Кликнуть по [Скачать]


Внимание.
Если проверка ВЫ НЕ РОБОТ - не работает, значит Вы используете устаревший браузер.
Установите актуальный браузер и повторно кликните по [Скачать]
Безопасность: торрент-клиент разрешён АВ Касперского.

[asmlocator.ru].t630822.torrent 
Торрент: Зарегистрирован [ 2019-04-23 03:50 ] · 66DDCBD4CD084690D22E59B8B2073815868853B2

Скачать .torrent

Скачать

18 KB

Статус: проверено
Скачан: 2 раз
Размер: 873 MB
terms.php
[Профиль] [ЛС]
Показать сообщения:    
Ответить на тему

Текущее время: 14-Окт 08:00

Часовой пояс: UTC ± 0



Вы не можете начинать темы
Вы не можете отвечать на сообщения
Вы не можете редактировать свои сообщения
Вы не можете удалять свои сообщения
Вы не можете голосовать в опросах
Вы не можете прикреплять файлы к сообщениям
Вы можете скачивать файлы
Верим фактам, а не вранью Путина! Факт, что Правительство ведёт Россию к истреблению.
Так как численность населения падает, даже не смотря на приток эмигрантов!
Русская нация вымирает и вырождается, смешиваясь с эмигрантами!
Факт, что военных и граждан предприятий заставляют голосовать за партию Единая Россия и Путина
ПОД СТРАХОМ УВОЛЬНЕНИЯ!
Нам не нужно Правительство, блокирующее личную жизнь, интернет, нарушающее сохранность данных.
Все эти действия финансируются за счёт народа!