Лучшее в 3Д для детей / Best of 3D für Kids / Best of 3D Kids [2014, мультфильм, короткометражка, BDRip] Half OverUnder / Вертикальная анаморфная стереопара

Ответить на тему
Статистика раздачи
Размер:  4,81 GB   |    Зарегистрирован:  5 месяцев 3 дня   |    Скачан:  1 раз

Полного источника не было: 59 минут

 
   
 
 
Автор Сообщение

star21 ®

Пол: Женский

Стаж: 3 года 10 месяцев

Сообщений: 551989

Откуда: Екатеринбург

Создавать темы 18-Апр-2019 11:10

[Цитировать]

Лучшее в 3Д для детей
Best of 3D für Kids
Best of 3D Kids
Год выпуска: 2014
Страна: Германия
Жанр: мультфильм, короткометражка
Продолжительность: 01:01:53Перевод: Не требуетсяОбщее описание: Короткометражные мультфильмы с немецкого BD 3D "Best of 3D Kids".
Подробнее - внизу под спойлерами.
Доп. инфо: "The Magic Piano" уже есть на трекере внутри фильма "Летающая машина (Волшебная страна)" - там другая цветопередача (может и качество).
"Ecodingo" есть на трекере в раздаче "Best of 3D (Vol. 1-9)" (более старый рип и с другого исходника).
Также на диске был мультфильм "Nuts & Robbers" - его не стал включать в эту раздачу - он уже есть в раздаче "Анимационные 3Д короткометражки".Качество: BDRip (by Ash61)
Контейнер: MKV
Формат 3D: Half OverUnder / Вертикальная анаморфная стереопара
Порядок ракурсов: левый ракурс первыйВидео: AVC / 1920х1080p / 23,976 fps
Аудио: AC3 / 48 KHz
Субтитры: только на "Luigis' Pizzaride 3D"
Все подробности под спойлерами.

Для оценки 3Д - Анимированные скрины















Содержание:

1. Волшебное фортепиано / The Magic Piano (2011) (34:22)

Страна: Китай, Норвегия, Польша
Описание: Анна — девочка, чей отец был вынужден уехать из Польши на заработки в Лондон. Однажды Анна и её двоюродный брат Чип-Чип находят сломанное фортепиано, которое магическим образом превращается в летающую машину. На ней дети отправляются в путешествие по Европе в надежде найти отца девочки…Премьера (мир): 17 марта 2012
. . Видео: 12.5 Mbps
Аудио: 2 ch / 448 Kbps
Субтитры: Отсутствуют

MediaInfo

General
Unique ID : 185699453822142976955477909213023248168 (0x8BB469F3DBE2E76CA785E8395F2F1F28)
Complete name : J:\BestOf3DKids(2014)3D-halfOU(Ash61)\1.TheMagicPiano(2011)3D-halfOU(Ash61).mkv
Format : Matroska
Format version : Version 2
File size : 3.11 GiB
Duration : 34mn 22s
Overall bit rate : 12.9 Mbps
Movie name : Волшебное фортепиано / The Magic Piano (2011) in 3D
Encoded date : UTC 2019-01-25 14:35:07
Writing application : mkvmerge v5.8.0 ('No Sleep / Pillow') built on Sep 2 2012 15:37:04
Writing library : libebml v1.2.3 + libmatroska v1.3.0Video
ID : 1
Format : AVC
Format/Info : Advanced Video Codec
Format profile : High@L4.1
Format settings, CABAC : Yes
Format settings, ReFrames : 4 frames
Codec ID : V_MPEG4/ISO/AVC
Duration : 34mn 22s
Bit rate : 12.5 Mbps
Width : 1 920 pixels
Height : 1 080 pixels
Display aspect ratio : 16:9
Frame rate mode : Constant
Frame rate : 23.976 (24000/1001) fps
Color space : YUV
Chroma subsampling : 4:2:0
Bit depth : 8 bits
Scan type : Progressive
Bits/(Pixel*Frame) : 0.251
Stream size : 2.94 GiB (95%)
Title : BDRip by Ash61
Writing library : x264 core 146 r2538 121396c
Encoding settings : cabac=1 / ref=4 / deblock=1:-3:-3 / analyse=0x3:0x113 / me=umh / subme=10 / psy=1 / psy_rd=1.00:0.00 / mixed_ref=1 / me_range=32 / chroma_me=1 / trellis=2 / 8x8dct=1 / cqm=0 / deadzone=21,11 / fast_pskip=0 / chroma_qp_offset=-2 / threads=12 / lookahead_threads=3 / sliced_threads=0 / nr=0 / decimate=0 / interlaced=0 / bluray_compat=0 / constrained_intra=0 / bframes=15 / b_pyramid=2 / b_adapt=2 / b_bias=0 / direct=3 / weightb=1 / open_gop=0 / weightp=2 / keyint=250 / keyint_min=23 / scenecut=40 / intra_refresh=0 / rc_lookahead=60 / rc=2pass / mbtree=0 / bitrate=12500 / ratetol=1.0 / qcomp=0.70 / qpmin=0 / qpmax=69 / qpstep=4 / cplxblur=20.0 / qblur=0.5 / vbv_maxrate=40000 / vbv_bufsize=30000 / nal_hrd=none / filler=0 / frame-packing=4 / ip_ratio=1.40 / pb_ratio=1.30 / aq=1:0.70
Language : English
Default : Yes
Forced : NoAudio
ID : 2
Format : AC-3
Format/Info : Audio Coding 3
Mode extension : CM (complete main)
Format settings, Endianness : Big
Codec ID : A_AC3
Duration : 34mn 22s
Bit rate mode : Constant
Bit rate : 448 Kbps
Channel(s) : 2 channels
Channel positions : Front: L R
Sampling rate : 48.0 KHz
Frame rate : 31.250 fps (1536 spf)
Compression mode : Lossy
Stream size : 110 MiB (3%)
Title : Original
Default : Yes
Forced : NoMenu
00:00:00.000 : :1
00:09:59.974 : :2
00:19:59.990 : :3
00:29:59.965 : :4

2. Цирковое шоу Грэми / Grami's Circus Show [s01] (2014) (18:33)

Страна: Южная Корея
Описание: Грэми, Немо и Сэм, трио львов, и дрессировщик Джек тренируются и выступают в их цирковом шоу.
Южнокорейский комедийный 3D-анимационный телесериал, снятый студией Gale. Транслировался на KBS1 и доступен на Netflix.
6 серий из первого сезона.


Видео: 4000 Kbps
Аудио: 2 ch / 448 Kbps
Субтитры: Отсутствуют

MediaInfo

General
Unique ID : 202918918503295876918241931648354949405 (0x98A8C31BCAAA2F67899888DB5337191D)
Complete name : J:\BestOf3DKids(2014)3D-halfOU(Ash61)\2.Grami'sCircusShow(2014)3D-halfOU(Ash61).mkv
Format : Matroska
Format version : Version 2
File size : 591 MiB
Duration : 18mn 33s
Overall bit rate : 4 450 Kbps
Movie name : Цирковое шоу Грэми / Grami's Circus Show [s01] (2014) in 3D
Encoded date : UTC 2019-01-25 15:03:11
Writing application : mkvmerge v5.8.0 ('No Sleep / Pillow') built on Sep 2 2012 15:37:04
Writing library : libebml v1.2.3 + libmatroska v1.3.0Video
ID : 1
Format : AVC
Format/Info : Advanced Video Codec
Format profile : High@L4.1
Format settings, CABAC : Yes
Format settings, ReFrames : 4 frames
Codec ID : V_MPEG4/ISO/AVC
Duration : 18mn 33s
Bit rate : 4 000 Kbps
Width : 1 920 pixels
Height : 1 080 pixels
Display aspect ratio : 16:9
Frame rate mode : Constant
Frame rate : 23.976 (24000/1001) fps
Color space : YUV
Chroma subsampling : 4:2:0
Bit depth : 8 bits
Scan type : Progressive
Bits/(Pixel*Frame) : 0.080
Stream size : 520 MiB (88%)
Title : BDRip by Ash61
Writing library : x264 core 146 r2538 121396c
Encoding settings : cabac=1 / ref=4 / deblock=1:-3:-3 / analyse=0x3:0x113 / me=umh / subme=10 / psy=1 / psy_rd=1.00:0.00 / mixed_ref=1 / me_range=32 / chroma_me=1 / trellis=2 / 8x8dct=1 / cqm=0 / deadzone=21,11 / fast_pskip=0 / chroma_qp_offset=-2 / threads=12 / lookahead_threads=3 / sliced_threads=0 / nr=0 / decimate=0 / interlaced=0 / bluray_compat=0 / constrained_intra=0 / bframes=12 / b_pyramid=2 / b_adapt=2 / b_bias=0 / direct=3 / weightb=1 / open_gop=0 / weightp=2 / keyint=250 / keyint_min=23 / scenecut=40 / intra_refresh=0 / rc_lookahead=60 / rc=2pass / mbtree=0 / bitrate=4000 / ratetol=1.0 / qcomp=0.70 / qpmin=0 / qpmax=69 / qpstep=4 / cplxblur=20.0 / qblur=0.5 / vbv_maxrate=40000 / vbv_bufsize=30000 / nal_hrd=none / filler=0 / frame-packing=4 / ip_ratio=1.40 / pb_ratio=1.30 / aq=1:0.70
Language : English
Default : Yes
Forced : NoAudio
ID : 2
Format : AC-3
Format/Info : Audio Coding 3
Mode extension : CM (complete main)
Format settings, Endianness : Big
Codec ID : A_AC3
Duration : 18mn 33s
Bit rate mode : Constant
Bit rate : 448 Kbps
Channel(s) : 2 channels
Channel positions : Front: L R
Sampling rate : 48.0 KHz
Frame rate : 31.250 fps (1536 spf)
Compression mode : Lossy
Stream size : 59.5 MiB (10%)
Title : Original (BD 3D)
Default : Yes
Forced : NoMenu
00:00:00.000 : : 1. Juggling
00:02:49.211 : : 2. Tightrope (1)
00:06:03.822 : : 3. Tightrope (2)
00:08:54.868 : : 4. Guitar Players
00:11:55.423 : : 5. Blowing out Candles
00:14:59.899 : : 6. A Merry Go Round

3. Доставка пиццы Луиджи 3D / Luigis' Pizzaride 3D (2011) (3:18)

Описание: Забавная погоня итальянских карабинеров за нарушителем правил дорожного движения, доставщиком пиццы, Луиджи.Видео: 13.0 Mbps
Аудио: Итальянский / 2 ch / 448 Kbps
Субтитры: Русские Форсированные [от Ash61] (включены по умолчанию) (SRT вшитые (softsub) и внешние (UTF-8))

MediaInfo

General
Unique ID : 176633333152264850723134122854689985597 (0x84E257B152BD732F9C63E20C8CBAD43D)
Complete name : J:\BestOf3DKids(2014)3D-halfOU(Ash61)\3.Luigis'Pizzaride3D(2011)3D-halfOU(Ash61).mkv
Format : Matroska
Format version : Version 2
File size : 317 MiB
Duration : 3mn 18s
Overall bit rate : 13.4 Mbps
Movie name : Доставка пиццы Луиджи 3D / Luigis' Pizzaride 3D (2011)
Encoded date : UTC 2019-01-17 11:41:45
Writing application : mkvmerge v5.8.0 ('No Sleep / Pillow') built on Sep 2 2012 15:37:04
Writing library : libebml v1.2.3 + libmatroska v1.3.0Video
ID : 1
Format : AVC
Format/Info : Advanced Video Codec
Format profile : High@L4.1
Format settings, CABAC : Yes
Format settings, ReFrames : 4 frames
Codec ID : V_MPEG4/ISO/AVC
Duration : 3mn 18s
Bit rate : 13.0 Mbps
Width : 1 920 pixels
Height : 1 080 pixels
Display aspect ratio : 16:9
Frame rate mode : Constant
Frame rate : 23.976 (24000/1001) fps
Color space : YUV
Chroma subsampling : 4:2:0
Bit depth : 8 bits
Scan type : Progressive
Bits/(Pixel*Frame) : 0.261
Stream size : 300 MiB (95%)
Title : BDRip by Ash61
Writing library : x264 core 146 r2538 121396c
Encoding settings : cabac=1 / ref=4 / deblock=1:-3:-3 / analyse=0x3:0x113 / me=umh / subme=10 / psy=1 / psy_rd=1.00:0.00 / mixed_ref=1 / me_range=32 / chroma_me=1 / trellis=2 / 8x8dct=1 / cqm=0 / deadzone=21,11 / fast_pskip=0 / chroma_qp_offset=-2 / threads=12 / lookahead_threads=2 / sliced_threads=0 / nr=0 / decimate=0 / interlaced=0 / bluray_compat=0 / constrained_intra=0 / bframes=9 / b_pyramid=2 / b_adapt=2 / b_bias=0 / direct=3 / weightb=1 / open_gop=0 / weightp=2 / keyint=250 / keyint_min=23 / scenecut=40 / intra_refresh=0 / rc_lookahead=60 / rc=2pass / mbtree=0 / bitrate=13000 / ratetol=1.0 / qcomp=0.70 / qpmin=0 / qpmax=69 / qpstep=4 / cplxblur=20.0 / qblur=0.5 / vbv_maxrate=40000 / vbv_bufsize=30000 / nal_hrd=none / filler=0 / frame-packing=4 / ip_ratio=1.40 / pb_ratio=1.30 / aq=1:0.70
Language : Italian
Default : Yes
Forced : NoAudio
ID : 2
Format : AC-3
Format/Info : Audio Coding 3
Mode extension : CM (complete main)
Format settings, Endianness : Big
Codec ID : A_AC3
Duration : 3mn 18s
Bit rate mode : Constant
Bit rate : 448 Kbps
Channel(s) : 2 channels
Channel positions : Front: L R
Sampling rate : 48.0 KHz
Frame rate : 31.250 fps (1536 spf)
Compression mode : Lossy
Stream size : 10.6 MiB (3%)
Language : Italian
Default : Yes
Forced : NoText
ID : 3
Format : UTF-8
Codec ID : S_TEXT/UTF8
Codec ID/Info : UTF-8 Plain Text
Title : Форсированные [Ash61]
Language : Russian
Default : Yes
Forced : No

4. Экодинго / Ecodingo (5:40)

Описание: Динамичная гонка различных летательных аппаратов в фантастическом мире.Видео: 20.0 Mbps
Аудио: 5.1 ch / 640 Kbps
Субтитры: Отсутствуют

MediaInfo

General
Unique ID : 171354188527707684701951948250774553836 (0x80E99DC467F43AE48B8063B45F4CC4EC)
Complete name : J:\BestOf3DKids(2014)3D-halfOU(Ash61)\4.Ecodingo.3D-halfOU(Ash61).mkv
Format : Matroska
Format version : Version 2
File size : 836 MiB
Duration : 5mn 40s
Overall bit rate : 20.6 Mbps
Movie name : Ecodingo (in 3D)
Encoded date : UTC 2019-01-25 15:13:03
Writing application : mkvmerge v5.8.0 ('No Sleep / Pillow') built on Sep 2 2012 15:37:04
Writing library : libebml v1.2.3 + libmatroska v1.3.0Video
ID : 1
Format : AVC
Format/Info : Advanced Video Codec
Format profile : High@L4.1
Format settings, CABAC : Yes
Format settings, ReFrames : 4 frames
Codec ID : V_MPEG4/ISO/AVC
Duration : 5mn 40s
Bit rate : 20.0 Mbps
Width : 1 920 pixels
Height : 1 080 pixels
Display aspect ratio : 16:9
Frame rate mode : Constant
Frame rate : 23.976 (24000/1001) fps
Color space : YUV
Chroma subsampling : 4:2:0
Bit depth : 8 bits
Scan type : Progressive
Bits/(Pixel*Frame) : 0.402
Stream size : 794 MiB (95%)
Title : BDRip by Ash61 [source - "Best of 3D für Kids" (2014)]
Writing library : x264 core 146 r2538 121396c
Encoding settings : cabac=1 / ref=4 / deblock=1:-3:-3 / analyse=0x3:0x113 / me=umh / subme=10 / psy=1 / psy_rd=1.00:0.00 / mixed_ref=1 / me_range=32 / chroma_me=1 / trellis=2 / 8x8dct=1 / cqm=0 / deadzone=21,11 / fast_pskip=0 / chroma_qp_offset=-2 / threads=12 / lookahead_threads=2 / sliced_threads=0 / nr=0 / decimate=0 / interlaced=0 / bluray_compat=0 / constrained_intra=0 / bframes=8 / b_pyramid=2 / b_adapt=2 / b_bias=0 / direct=3 / weightb=1 / open_gop=0 / weightp=2 / keyint=250 / keyint_min=23 / scenecut=40 / intra_refresh=0 / rc_lookahead=60 / rc=2pass / mbtree=0 / bitrate=20000 / ratetol=1.0 / qcomp=0.70 / qpmin=0 / qpmax=69 / qpstep=4 / cplxblur=20.0 / qblur=0.5 / vbv_maxrate=40000 / vbv_bufsize=30000 / nal_hrd=none / filler=0 / frame-packing=4 / ip_ratio=1.40 / pb_ratio=1.30 / aq=1:0.70
Default : Yes
Forced : NoAudio
ID : 2
Format : AC-3
Format/Info : Audio Coding 3
Mode extension : CM (complete main)
Format settings, Endianness : Big
Codec ID : A_AC3
Duration : 5mn 40s
Bit rate mode : Constant
Bit rate : 640 Kbps
Channel(s) : 6 channels
Channel positions : Front: L C R, Side: L R, LFE
Sampling rate : 48.0 KHz
Frame rate : 31.250 fps (1536 spf)
Compression mode : Lossy
Stream size : 26.0 MiB (3%)
Default : Yes
Forced : No

Чтобы скачать этот контент, Вам необходимо:
1. Скачать и установить торрент-клиент [клик для Windows], (для мобильного найдите на Play Маркет).
2. Кликнуть по [Скачать]


Внимание.
Если проверка ВЫ НЕ РОБОТ - не работает, значит Вы используете устаревший браузер.
Установите актуальный браузер и повторно кликните по [Скачать]
Безопасность: торрент-клиент разрешён АВ Касперского.

[asmlocator.ru].t629718.torrent 
Торрент: Зарегистрирован [ 2019-04-18 11:10 ] · 3FA7CF31BB87F16D09056EAF5ADA7FD4E00C81A5

Скачать .torrent

Скачать

25 KB

Статус: проверено
Скачан: 1 раз
Размер: 4,81 GB
terms.php
[Профиль] [ЛС]
Показать сообщения:    
Ответить на тему

Текущее время: 22-Сен 05:34

Часовой пояс: UTC ± 0



Вы не можете начинать темы
Вы не можете отвечать на сообщения
Вы не можете редактировать свои сообщения
Вы не можете удалять свои сообщения
Вы не можете голосовать в опросах
Вы не можете прикреплять файлы к сообщениям
Вы можете скачивать файлы
Верим фактам, а не вранью Путина! Факт, что Правительство ведёт Россию к истреблению.
Так как численность населения падает, даже не смотря на приток эмигрантов!
Русская нация вымирает и вырождается, смешиваясь с эмигрантами!
Факт, что военных и граждан предприятий заставляют голосовать за партию Единая Россия и Путина
ПОД СТРАХОМ УВОЛЬНЕНИЯ!
Нам не нужно Правительство, блокирующее личную жизнь, интернет, нарушающее сохранность данных.
Все эти действия финансируются за счёт народа!