Габдулла Тукай. Пять мгновений любви (Александр Фетисов) [2006, Документальный, DVDScr]

Ответить на тему
Статистика раздачи
Размер:  472 MB   |    Зарегистрирован:  6 месяцев 29 дней   |    Скачан:  0 раз

Полного источника не было: Никогда

 
   
 
 
Автор Сообщение

Создавать темы 15-Мар-2019 13:30

Габдулла Тукай. Пять мгновений любви Год выпуска: 2006
Страна: Россия
Жанр: Документальный
Продолжительность: 00:46:18Режиссер: Александр ФетисовОписание: Габдулла Тукай – известный татарский поэт, олицентворяющий собой духовно-культурную связь русского и татарского народов. Сегодня имя Тукая, столетие которого отмечал в 1986 году весь СССР, остается святым именем не только для татарского народа, но для всех россиян, которым еще дорога их многонациональная культура. Жизнь этого гениального поэта, не дожившего даже до возраста Лермонтова, навсегда останется трагическим сюжетом российской истории, но его бессмертная душа присутствует среди нас, заставляя, при всех тяготах бытия, не забывать о вере, надежде, совести и любви. Создатели фильма приоткрыли одну из сторон жизни поэта – тайну любви.Первый приз за лучший сценарий неигрового кино на Международном кинофестивале «Золотой Минбар 2006»Качество: DVDScr
Формат: AVI
Видео кодек: XviD
Аудио кодек: MP3
Видео: 688x512 (1.34:1), 25 fps, XviD MPEG-4 ~1288 kbps avg, 0.15 bit/pixel
Аудио: 48 kHz, MPEG Layer 3, 2 ch, ~128.00 kbps avg

Отчёт MediaInfo

ОбщееПолное имя                               : E:\torrents\! moe\Габдулла Тукай. Пять мгновений любви (А. Фетисов) [2006, DVDScr].aviФормат                                   : AVIФормат/Информация                        : Audio Video InterleaveРазмер файла                             : 472 МбайтПродолжительность                        : 46 м. 18 с.Общий поток                              : 1427 Кбит/секНазвание фильма                          : Габдулла Тукай. Пять мгновений любвиРежиссёр                                 : chizhikЖанр                                     : BiographicПрограмма кодирования                    : VirtualDubMod 1.5.10.2 (build 2540/release)Формат оригинала/Имя                     : DocumentaryПримечание                               : Ripped for www.rutracker.orgВидеоИдентификатор                            : 0Формат                                   : MPEG-4 VisualПрофиль формата                          : Advanced Simple@L5Настройки формата                        : BVOP2Параметр BVOP формата                    : 2Параметр QPel формата                    : НетПараметр GMC формата                     : Без точки переходаПараметр матрицы формата                 : Default (H.263)Режим смешивания                         : Сжатый битовый потокИдентификатор кодека                     : XVIDИдентификатор кодека/Подсказка           : XviDПродолжительность                        : 46 м. 18 с.Битрейт                                  : 1289 Кбит/секШирина                                   : 688 пикселейВысота                                   : 512 пикселейСоотношение сторон                       : 4:3Частота кадров                           : 25,000 кадров/секЦветовое пространство                    : YUVСубдискретизация насыщенности            : 4:2:0Битовая глубина                          : 8 битТип развёртки                            : ПрогрессивнаяМетод сжатия                             : С потерямиБит/(Пиксели*Кадры)                      : 0.146Размер потока                            : 427 Мбайт (90%)Библиотека кодирования                   : XviD 1.2.1 (UTC 2008-12-04)АудиоИдентификатор                            : 1Формат                                   : MPEG AudioВерсия формата                           : Version 1Профиль формата                          : Layer 3Настройки формата                        : Joint stereo / MS StereoИдентификатор кодека                     : 55Идентификатор кодека/Подсказка           : MP3Продолжительность                        : 46 м. 18 с.Вид битрейта                             : ПостоянныйБитрейт                                  : 128 Кбит/секКаналы                                   : 2 каналаЧастота                                  : 48,0 КГцМетод сжатия                             : С потерямиРазмер потока                            : 42,4 Мбайт (9%)Выравнивание                             : Соединение по промежуткамПродолжительность промежутка             : 40  мс. (1,00 видеокадр)Время предзагрузки промежутка            : 504  мс.

Скриншоты

Альтернативный сервер со скриншотами

Чтобы скачать этот контент, Вам необходимо:
1. Скачать и установить торрент-клиент [клик для Windows], (для мобильного найдите на Play Маркет).
2. Кликнуть по [Скачать]


Внимание.
Если проверка ВЫ НЕ РОБОТ - не работает, значит Вы используете устаревший браузер.
Установите актуальный браузер и повторно кликните по [Скачать]
Безопасность: торрент-клиент разрешён АВ Касперского.

[asmlocator.ru].t619366.torrent 
Торрент: Зарегистрирован [ 2019-03-15 13:30 ] · 8C5682F5E73831AA85106B52062A3FCC3D9E0725

Скачать .torrent

Скачать

19 KB

Статус: проверено
Скачан: 0 раз
Размер: 472 MB
terms.php
 
Показать сообщения:    
Ответить на тему

Текущее время: 14-Окт 08:04

Часовой пояс: UTC ± 0



Вы не можете начинать темы
Вы не можете отвечать на сообщения
Вы не можете редактировать свои сообщения
Вы не можете удалять свои сообщения
Вы не можете голосовать в опросах
Вы не можете прикреплять файлы к сообщениям
Вы можете скачивать файлы
Верим фактам, а не вранью Путина! Факт, что Правительство ведёт Россию к истреблению.
Так как численность населения падает, даже не смотря на приток эмигрантов!
Русская нация вымирает и вырождается, смешиваясь с эмигрантами!
Факт, что военных и граждан предприятий заставляют голосовать за партию Единая Россия и Путина
ПОД СТРАХОМ УВОЛЬНЕНИЯ!
Нам не нужно Правительство, блокирующее личную жизнь, интернет, нарушающее сохранность данных.
Все эти действия финансируются за счёт народа!