Датта против Датты / Dutta Vs. Dutta (Анджан Датт / Anjan Dutt) [2012, Индия, трагикомедия, HDTVRip-AVC] DVO (Владимир Семыкин, Юлия Семыкина) + Original (Ben) + Sub (Rus)

Ответить на тему
Статистика раздачи
Размер:  2,19 GB   |    Зарегистрирован:  7 месяцев 6 дней   |    Скачан:  0 раз

Полного источника не было: Никогда

 
   
 
 
Автор Сообщение

star21 ®

Пол: Женский

Стаж: 3 года 11 месяцев

Сообщений: 551988

Откуда: Екатеринбург

Создавать темы 15-Мар-2019 09:10

[Цитировать]

Датта против Датты
Dutta Vs. Dutta Страна: Индия
Жанр: трагикомедия
Год выпуска: 2012
Продолжительность: 01:57:36Перевод: Любительский (двухголосый закадровый) Владимир Семыкин, Юлия Семыкина
Субтитры: русские
Оригинальная аудиодорожка: бенгальскийРежиссер: Анджан Датт / Anjan DuttВ ролях: Ранодип Бозе / Ronodeep Bose (Rono, Biren Dutta's teenage son), Анджан Датт / Anjan Dutt (Biren Dutta), Арпита Чаттерджи / Arpita Chatterjee (China, Biren Dutta's daughter), Рита Кайрал / Rita Koiral (Rita, Biren Dutta's wife), Коушик Сен / Kaushik Sen (Naxalite, China's husband), Шанкар Чакраборти / Shankar Chakraborty (Ghenti Kaku), Депанкар Де / Deepankar De (Grandfather), Рупа Гангули / Roopa Ganguly (Runu)Описание: Бенгальский режиссер, музыкант и автор-исполнитель, работающий в стиле anyodharar gaan, напоминающем блюз, фолк и кантри, снял автобиографический фильм о своей юности. Действие фильма разворачивается в 1970-е годы в Калькутте, когда во всем мире шли протестные движения и звучала рок-музыка. Главный герой возвращается из престижной школы в Дарджилинге в родной дом в Калькутте, потому что у его отца нет денег на дальнейшее обучение сына. Тот вынужден вернуться в родной дом, который ненавидит. Отец надеется, что его сын все же станет юристом, но юноша мечтает стать актером...Доп. информация: за предоставленный материал благодарность y.semykina. Перевод и сведение звука: Юлия Семыкина. Качество видео: HDTVRip-AVC
Формат видео: MKVВидео: AVC (H.264), 720х304 (2.35:1), 23.976 fps, ~2022 kbps avg, 0.385 bit/pixel
Аудио 1: AC3, 2 ch, 48 kHz, 192 kbps avg - русский
Аудио 2: AC3, 6 ch, 48 kHz, 448 kbps avg - бенгальский
Формат субтитров: отключаемые (SRT): русские - форсированные (перевод песен) и полные

MediaInfo

GeneralUnique ID                                : 195601775286296598715899051492244939776 (0x932788183E327DA042C5A12B44176400)Complete name                            : [apreder]Dutta_Vs_Dutta(2012)HDTVRip.mkvFormat                                   : MatroskaFormat version                           : Version 2File size                                : 2.19 GiBDuration                                 : 1 h 57 minOverall bit rate                         : 2 660 kb/sMovie name                               : Dutta Vs. DuttaReleased date                            : 2012-11-23Encoded date                             : UTC 2019-03-06 17:09:19Writing application                      : mkvmerge v31.0.0 ('Dolores In A Shoestand') 64-bitWriting library                          : libebml v1.3.6 + libmatroska v1.4.9Cover                                    : YesAttachments                              : cover.jpg / small_cover.jpgACTOR                                    : Ronodeep Bose, Anjan DuttDIRECTOR                                 : Anjan DuttGENRE                                    : DramaIMDB                                     : tt2556700KEYWORDS                                 : rutracker.orgLAW_RATING                               : 16+VideoID                                       : 1Format                                   : AVCFormat/Info                              : Advanced Video CodecFormat profile                           : High@L4.1Format settings                          : CABAC / 16 Ref FramesFormat settings, CABAC                   : YesFormat settings, RefFrames               : 16 framesCodec ID                                 : V_MPEG4/ISO/AVCDuration                                 : 1 h 57 minBit rate                                 : 2 022 kb/sWidth                                    : 720 pixelsHeight                                   : 304 pixelsDisplay aspect ratio                     : 2.35:1Frame rate mode                          : ConstantFrame rate                               : 23.976 (24000/1001) FPSColor space                              : YUVChroma subsampling                       : 4:2:0Bit depth                                : 8 bitsScan type                                : ProgressiveBits/(Pixel*Frame)                       : 0.385Stream size                              : 1.62 GiB (74%)Writing library                          : x264 core 157 r2935 545de2fEncoding settings                        : cabac=1 / ref=16 / deblock=1:-1:-1 / analyse=0x3:0x133 / me=umh / subme=10 / psy=1 / psy_rd=1.00:0.15 / mixed_ref=1 / me_range=24 / chroma_me=1 / trellis=2 / 8x8dct=1 / cqm=0 / deadzone=21,11 / fast_pskip=1 / chroma_qp_offset=-3 / threads=9 / lookahead_threads=1 / sliced_threads=0 / nr=0 / decimate=1 / interlaced=0 / bluray_compat=0 / constrained_intra=0 / bframes=8 / b_pyramid=2 / b_adapt=2 / b_bias=0 / direct=3 / weightb=1 / open_gop=0 / weightp=2 / keyint=240 / keyint_min=23 / scenecut=40 / intra_refresh=0 / rc_lookahead=60 / rc=2pass / mbtree=1 / bitrate=2022 / ratetol=1.0 / qcomp=0.60 / qpmin=0 / qpmax=69 / qpstep=4 / cplxblur=20.0 / qblur=0.5 / vbv_maxrate=62500 / vbv_bufsize=78125 / nal_hrd=none / filler=0 / ip_ratio=1.40 / aq=1:1.00Default                                  : YesForced                                   : NoAudio #1ID                                       : 2Format                                   : AC-3Format/Info                              : Audio Coding 3Commercial name                          : Dolby DigitalCodec ID                                 : A_AC3Duration                                 : 1 h 57 minBit rate mode                            : ConstantBit rate                                 : 192 kb/sChannel(s)                               : 2 channelsChannel layout                           : L RSampling rate                            : 48.0 kHzFrame rate                               : 31.250 FPS (1536 SPF)Bit depth                                : 16 bitsCompression mode                         : LossyStream size                              : 162 MiB (7%)Language                                 : RussianService kind                             : Complete MainDefault                                  : YesForced                                   : NoAudio #2ID                                       : 3Format                                   : AC-3Format/Info                              : Audio Coding 3Commercial name                          : Dolby DigitalCodec ID                                 : A_AC3Duration                                 : 1 h 57 minBit rate mode                            : ConstantBit rate                                 : 448 kb/sChannel(s)                               : 6 channelsChannel layout                           : L R C LFE Ls RsSampling rate                            : 48.0 kHzFrame rate                               : 31.250 FPS (1536 SPF)Bit depth                                : 16 bitsCompression mode                         : LossyStream size                              : 378 MiB (17%)Language                                 : BengaliService kind                             : Complete MainDefault                                  : NoForced                                   : NoText #1ID                                       : 4Format                                   : UTF-8Codec ID                                 : S_TEXT/UTF8Codec ID/Info                            : UTF-8 Plain TextTitle                                    : ForcedLanguage                                 : RussianDefault                                  : NoForced                                   : NoText #2ID                                       : 5Format                                   : UTF-8Codec ID                                 : S_TEXT/UTF8Codec ID/Info                            : UTF-8 Plain TextLanguage                                 : RussianDefault                                  : NoForced                                   : No

Скриншот c названием фильма

Скриншоты

Резервные скриншоты

[4'524]

Чтобы скачать этот контент, Вам необходимо:
1. Скачать и установить торрент-клиент [клик для Windows], (для мобильного найдите на Play Маркет).
2. Кликнуть по [Скачать]


Внимание.
Если проверка ВЫ НЕ РОБОТ - не работает, значит Вы используете устаревший браузер.
Установите актуальный браузер и повторно кликните по [Скачать]
Безопасность: торрент-клиент разрешён АВ Касперского.

[mail.asmlocator.ru].t619305.torrent 
Торрент: Зарегистрирован [ 2019-03-15 09:10 ] · 7BD71AAC2620BEAED8FD6D79A6D3110FE6E82ED7

Скачать .torrent

Скачать

22 KB

Статус: проверено
Скачан: 0 раз
Размер: 2,19 GB
terms.php
[Профиль] [ЛС]
Показать сообщения:    
Ответить на тему

Текущее время: 21-Окт 09:59

Часовой пояс: UTC ± 0



Вы не можете начинать темы
Вы не можете отвечать на сообщения
Вы не можете редактировать свои сообщения
Вы не можете удалять свои сообщения
Вы не можете голосовать в опросах
Вы не можете прикреплять файлы к сообщениям
Вы можете скачивать файлы
Верим фактам, а не вранью Путина! Факт, что Правительство ведёт Россию к истреблению.
Так как численность населения падает, даже не смотря на приток эмигрантов!
Русская нация вымирает и вырождается, смешиваясь с эмигрантами!
Факт, что военных и граждан предприятий заставляют голосовать за партию Единая Россия и Путина
ПОД СТРАХОМ УВОЛЬНЕНИЯ!
Нам не нужно Правительство, блокирующее личную жизнь, интернет, нарушающее сохранность данных.
Все эти действия финансируются за счёт народа!