[DTSCD][UP] ETN - Soul Searching - 2018 (Dark Psy, PsyTrance)

Ответить на тему
Статистика раздачи
Размер:  621 MB   |    Зарегистрирован:  7 месяцев 21 день   |    Скачан:  0 раз

Полного источника не было: 1 день 14 часов

 
   
 
 
Автор Сообщение

star21 ®

Пол: Женский

Стаж: 3 года 11 месяцев

Сообщений: 551988

Откуда: Екатеринбург

Создавать темы 27-Фев-2019 19:25

[Цитировать]

ETN - Soul Searching DTS UPMix Формат записи/Источник записи: [DTSCD][UP]
Наличие водяных знаков: Нет
Год издания/переиздания диска: 2018
Жанр: Dark Psy, PsyTrance
Издатель (лейбл): Zenon Records
Продолжительность: 01:01:26
Наличие сканов в содержимом раздачи: Только обложка альбомаТреклист:
1. Through The Gate 08:48
2. Different 08:57
3. Trance Mutation 08:00
4. Momentarily Free 11:26
5. Fortress 08:59
6. Maximal 07:21
7. Sun People 07:52Контейнер: WAV(*.wav)
Тип рипа: tracksРазрядность: 16/44,1
Формат: DTS
Количество каналов: 5.1
Битрейт аудио: 1411 kbps

DR-лог

foobar2000 1.1.9 / Dynamic Range Meter 1.1.1log date: 2019-02-10 21:36:50--------------------------------------------------------------------------------Analyzed: ? / ?--------------------------------------------------------------------------------DR         Peak         RMS     Duration Track--------------------------------------------------------------------------------DR10      -0.48 dB   -16.24 dB      8:48 ?-01_ETN - Through the Gate DTSDR10      -0.65 dB   -16.25 dB      8:57 ?-02_ETN - Different DTSDR10      -0.75 dB   -15.94 dB      8:00 ?-03_ETN - Trance Mutation DTSDR10      -1.03 dB   -16.24 dB     11:26 ?-04_ETN - Momentarily Free DTSDR10      -1.01 dB   -16.25 dB      9:00 ?-05_ETN - Fortress DTSDR10      -0.64 dB   -16.26 dB      7:21 ?-06_ETN - Maximal DTSDR10      -0.64 dB   -16.26 dB      7:53 ?-07_ETN - Sun People DTS--------------------------------------------------------------------------------Number of tracks:  7Official DR value: DR10Samplerate:        44100 HzChannels:          6Bits per sample:   16Bitrate:           1411 kbpsCodec:             DTS================================================================================
Источник (релизер): WEB-релиз
Доп. информация: DJ S.A.W. DTS Upmix
Метод получения апмикса:
ручное выделение фазо-частотных фрагментов фонограммы с помощью функции CCE Adobe Audition
мультиканальный мастеринг – Аdobe Audition (встроенными эффектами и плагинами Waves, iZotope,
Starplugs и т.п.)

Чтобы скачать этот контент, Вам необходимо:
1. Скачать и установить торрент-клиент [клик для Windows], (для мобильного найдите на Play Маркет).
2. Кликнуть по [Скачать]


Внимание.
Если проверка ВЫ НЕ РОБОТ - не работает, значит Вы используете устаревший браузер.
Установите актуальный браузер и повторно кликните по [Скачать]
Безопасность: торрент-клиент разрешён АВ Касперского.

[mail.asmlocator.ru].t613832.torrent 
Торрент: Зарегистрирован [ 2019-02-27 19:25 ] · EE667C76CBE081BCD4C2EC03A9751F7250B3BEFF

Скачать .torrent

Скачать

13 KB

Статус: проверено
Скачан: 0 раз
Размер: 621 MB
terms.php
[Профиль] [ЛС]
Показать сообщения:    
Ответить на тему

Текущее время: 21-Окт 11:36

Часовой пояс: UTC ± 0



Вы не можете начинать темы
Вы не можете отвечать на сообщения
Вы не можете редактировать свои сообщения
Вы не можете удалять свои сообщения
Вы не можете голосовать в опросах
Вы не можете прикреплять файлы к сообщениям
Вы можете скачивать файлы
Верим фактам, а не вранью Путина! Факт, что Правительство ведёт Россию к истреблению.
Так как численность населения падает, даже не смотря на приток эмигрантов!
Русская нация вымирает и вырождается, смешиваясь с эмигрантами!
Факт, что военных и граждан предприятий заставляют голосовать за партию Единая Россия и Путина
ПОД СТРАХОМ УВОЛЬНЕНИЯ!
Нам не нужно Правительство, блокирующее личную жизнь, интернет, нарушающее сохранность данных.
Все эти действия финансируются за счёт народа!