Justice • Woman Worldwild Paris [2017, Electro House, Nu-Disco, HDTV, 720p]

Ответить на тему
Статистика раздачи
Размер:  5,04 GB   |    Зарегистрирован:  6 месяцев 22 дня   |    Скачан:  0 раз

Полного источника не было: Никогда

 
   
 
 
Автор Сообщение

star21 ®

Пол: Женский

Стаж: 3 года 10 месяцев

Сообщений: 551989

Откуда: Екатеринбург

Создавать темы 26-Фев-2019 01:20

[Цитировать]

Justice
Woman Worldwild Paris

Жанр: Electro House, Nu-Disco
Продолжительность: 00:58:24
Год выпуска: 2017
Качество: HDTV
Разрешение видео/развертка: 720p
Контейнер: TS
Видео кодек: H.264
Аудио кодек: AC3, MP2
Видео: MPEG4 Video (H264) 1280x720 50fps 10.7 Mb/s
Аудио 1: Dolby AC3 48000Hz 6ch 448kbps
Аудио 2: MPEG Audio 48000Hz stereo 192kbps

Треклист

01. Safe and Sound
02. D.A.N.C.E. (inclundes elements of Safe and Sounds )
03. Canon
04. Stress
05. Love S.O.S.
06. Alakazam! / Fire
07. Chorus
08. Audio, Video, Disco
09. Stop
10. Randy

Отчёт MediaInfo / BDInfo

GeneralID                             : 1019 (0x3FB)Complete name                  : F:\Justice - Woman Worldwild Paris 2017.tsFormat                         : MPEG-TSFile size                      : 5.04 GiBDuration                       : 58 min 24 sOverall bit rate mode          : VariableOverall bit rate               : 12.4 Mb/sVideoID                             : 5111 (0x13F7)Menu ID                        : 10302 (0x283E)Format                         : AVCFormat/Info                    : Advanced Video CodecFormat profile                 : High@L4Format settings                : CABAC / 4 Ref FramesFormat settings, CABAC         : YesFormat settings, ReFrames      : 4 framesCodec ID                       : 27Duration                       : 58 min 21 sBit rate                       : 10.7 Mb/sWidth                          : 1 280 pixelsHeight                         : 720 pixelsDisplay aspect ratio           : 16:9Frame rate                     : 50.000 FPSColor space                    : YUVChroma subsampling             : 4:2:0Bit depth                      : 8 bitsScan type                      : ProgressiveBits/(Pixel*Frame)             : 0.233Stream size                    : 4.37 GiB (87%)Audio #1ID                             : 5112 (0x13F8)Menu ID                        : 10302 (0x283E)Format                         : MPEG AudioFormat version                 : Version 1Format profile                 : Layer 2Codec ID                       : 3Duration                       : 58 min 24 sBit rate mode                  : ConstantBit rate                       : 192 kb/sChannel(s)                     : 2 channelsSampling rate                  : 48.0 kHzFrame rate                     : 41.667 FPS (1152 SPF)Compression mode               : LossyDelay relative to video        : -52 msStream size                    : 80.2 MiB (2%)Language                       : GermanAudio #2ID                             : 5113 (0x13F9)Menu ID                        : 10302 (0x283E)Format                         : MPEG AudioFormat version                 : Version 1Format profile                 : Layer 2Codec ID                       : 3Duration                       : 58 min 24 sBit rate mode                  : ConstantBit rate                       : 192 kb/sChannel(s)                     : 2 channelsSampling rate                  : 48.0 kHzFrame rate                     : 41.667 FPS (1152 SPF)Compression mode               : LossyDelay relative to video        : -52 msStream size                    : 80.2 MiB (2%)Language                       : FrenchAudio #3ID                             : 5116 (0x13FC)Menu ID                        : 10302 (0x283E)Format                         : AC-3Format/Info                    : Audio Coding 3Commercial name                : Dolby DigitalCodec ID                       : 6Duration                       : 58 min 24 sBit rate mode                  : ConstantBit rate                       : 448 kb/sChannel(s)                     : 6 channelsChannel layout                 : L R C LFE Ls RsSampling rate                  : 48.0 kHzFrame rate                     : 31.250 FPS (1536 SPF)Bit depth                      : 16 bitsCompression mode               : LossyDelay relative to video        : -64 msStream size                    : 187 MiB (4%)Language                       : Multiple languagesService kind                   : Complete MainAudio #4ID                             : 5117 (0x13FD)Menu ID                        : 10302 (0x283E)Format                         : MPEG AudioFormat version                 : Version 1Format profile                 : Layer 2Codec ID                       : 3Duration                       : 58 min 24 sBit rate mode                  : ConstantBit rate                       : 192 kb/sChannel(s)                     : 2 channelsSampling rate                  : 48.0 kHzFrame rate                     : 41.667 FPS (1152 SPF)Compression mode               : LossyDelay relative to video        : -40 msStream size                    : 80.2 MiB (2%)OtherID                             : 5114 (0x13FA)-100Menu ID                        : 10302 (0x283E)Format                         : TeletextLanguage                       : German

Чтобы скачать этот контент, Вам необходимо:
1. Скачать и установить торрент-клиент [клик для Windows], (для мобильного найдите на Play Маркет).
2. Кликнуть по [Скачать]


Внимание.
Если проверка ВЫ НЕ РОБОТ - не работает, значит Вы используете устаревший браузер.
Установите актуальный браузер и повторно кликните по [Скачать]
Безопасность: торрент-клиент разрешён АВ Касперского.

[asmlocator.ru].t613603.torrent 
Торрент: Зарегистрирован [ 2019-02-26 01:20 ] · 01F7F92B4D03EBC12BE9C1039EC01E7AC5F8AEBE

Скачать .torrent

Скачать

13 KB

Статус: проверено
Скачан: 0 раз
Размер: 5,04 GB
terms.php
[Профиль] [ЛС]
Показать сообщения:    
Ответить на тему

Текущее время: 20-Сен 22:31

Часовой пояс: UTC ± 0



Вы не можете начинать темы
Вы не можете отвечать на сообщения
Вы не можете редактировать свои сообщения
Вы не можете удалять свои сообщения
Вы не можете голосовать в опросах
Вы не можете прикреплять файлы к сообщениям
Вы можете скачивать файлы
Верим фактам, а не вранью Путина! Факт, что Правительство ведёт Россию к истреблению.
Так как численность населения падает, даже не смотря на приток эмигрантов!
Русская нация вымирает и вырождается, смешиваясь с эмигрантами!
Факт, что военных и граждан предприятий заставляют голосовать за партию Единая Россия и Путина
ПОД СТРАХОМ УВОЛЬНЕНИЯ!
Нам не нужно Правительство, блокирующее личную жизнь, интернет, нарушающее сохранность данных.
Все эти действия финансируются за счёт народа!