В далёком сорок пятом... Встречи на Эльбе (Мира Тодоровская, Петро Алексовски) [2015, Россия, драма, военный, HDTV 1080i]

Ответить на тему
Статистика раздачи
Размер:  6,46 GB   |    Зарегистрирован:  7 месяцев 27 дней   |    Скачан:  0 раз

Полного источника не было: Никогда

 
   
 
 
Автор Сообщение

star21 ®

Пол: Женский

Стаж: 3 года 11 месяцев

Сообщений: 551988

Откуда: Екатеринбург

Создавать темы 14-Фев-2019 23:35

[Цитировать]

В далёком сорок пятом... Встречи на Эльбе Страна: Россия
Студия: Кинокомпания «Мирабель», Фонд Кино
Жанр: драма, военный
Год выпуска: 2015
Продолжительность: 01:36:29Перевод: Не требуется
Субтитры: нет
Оригинальная аудиодорожка: русскийРежиссер: Мира Тодоровская, Петро АлексовскиВ ролях: Илья Ильиных, Мария Павловская (II), Майкл Шиллер, Нил Кропалов, Люцина Шерок, Евгений Миронкин, Евгений Серзин, Ирина Пегова, Илья Морозов (II), Адам Турчик, Владимир Яковлев (II), Ян Александрович-Краско, Эва Шикульска, Магдалена Беганьская, Рафал Сисицкий, Анджей Клак, Давид Прайс (II), Джим Вильямс, Якуб Гель, Роберт Вжосек, Дмитрий ПодадаевОписание: Лейтенант Юрий Никитин, несмотря на молодой возраст, назначен комендантом маленького городка Иерихов на Эльбе. При этом Никитин должен принять на себя достаточно серьезные обязанности по налаживанию жизни в городке. Четырехэтажный дом — комендатура Иерихова. Дом раньше принадлежал Гансу Лемке — хозяину свинофермы, пекарни и сыроварни. Горожане думают, что Лемке погиб, но он жив. Он прячется в штольне и через оптический прицел снайперской винтовки наблюдает за всем, что происходит в городке, — особенно за молодым офицером, обосновавшимся в его доме.Дополнительная информация:
Автор релиза -
Источник - HDTV 1080i TS - моя запись с канала "Наш Детектив HD"

[imdb]http://www.imdb.com/title/tt5125310[/imdb]
Тип релиза: HDTV 1080i
Контейнер: TSВидео: MPEG-4, 1920x1080 (16:9), 8461 kbps, 25 fps, 0.163 bit/pixel
Аудио 1: Русский MP2, 48000 Гц, 2ch, 192 kbps
Аудио 2: Русский АС3, 48000 Гц, 6ch, 448 kbps

MediaInfo

ОбщееИдентификатор                            : 1 (0x1)Полное имя                               : D:\В.далеком.сорок.пятом.Встречи.на.Эльбе.2015.HDTV.1080i-ylnian.tsФормат                                   : MPEG-TSРазмер файла                             : 6,46 ГбайтПродолжительность                        : 1 ч. 36 м.Режим общего битрейта                    : ПеременныйОбщий поток                              : 9580 Кбит/секВидеоИдентификатор                            : 3531 (0xDCB)Идентификатор меню                       : 17013 (0x4275)Формат                                   : AVCФормат/Информация                        : Advanced Video CodecПрофиль формата                          : Main@L4Настройки формата                        : CABAC / 3 Ref FramesПараметр CABAC формата                   : ДаПараметр RefFrames формата               : 3 кадраПараметр GOP формата                     : M=4, N=32Идентификатор кодека                     : 27Продолжительность                        : 1 ч. 36 м.Битрейт                                  : 8461 Кбит/секШирина                                   : 1920 пикселейВысота                                   : 1080 пикселейСоотношение сторон                       : 16:9Частота кадров                           : 25,000 кадров/секЦветовое пространство                    : YUVСубдискретизация насыщенности            : 4:2:0Битовая глубина                          : 8 битТип развёртки                            : ЧересстрочнаяМетод сохранения типа развёртки          : Раздельные поляПорядок развёртки                        : Верхнее поле первоеБит/(Пиксели*Кадры)                      : 0.163Размер потока                            : 5,70 Гбайт (88%)Цветовой диапазон                        : LimitedОсновные цвета                           : BT.709Характеристики трансфера                 : BT.709Коэффициенты матрицы                     : BT.709Аудио #1Идентификатор                            : 3532 (0xDCC)Идентификатор меню                       : 17013 (0x4275)Формат                                   : MPEG AudioВерсия формата                           : Version 1Профиль формата                          : Layer 2Идентификатор кодека                     : 3Продолжительность                        : 1 ч. 36 м.Вид битрейта                             : ПостоянныйБитрейт                                  : 192 Кбит/секКаналы                                   : 2 каналаЧастота                                  : 48,0 КГцЧастота кадров                           : 41,667 кадра/сек (1152 SPF)Метод сжатия                             : С потерямиЗадержка видео                           : -80 мс.Размер потока                            : 132 Мбайт (2%)Язык                                     : RussianАудио #2Идентификатор                            : 3533 (0xDCD)Идентификатор меню                       : 17013 (0x4275)Формат                                   : AC-3Формат/Информация                        : Audio Coding 3Коммерческое название                    : Dolby DigitalИдентификатор кодека                     : 6Продолжительность                        : 1 ч. 36 м.Вид битрейта                             : ПостоянныйБитрейт                                  : 448 Кбит/секКаналы                                   : 6 каналовChannel layout                           : L R C LFE Ls RsЧастота                                  : 48,0 КГцЧастота кадров                           : 31,250 кадров/сек (1536 SPF)Битовая глубина                          : 16 битМетод сжатия                             : С потерямиЗадержка видео                           : -80 мс.Размер потока                            : 309 Мбайт (5%)Язык                                     : RussianServiceKind/String                       : Complete Main

Чтобы скачать этот контент, Вам необходимо:
1. Скачать и установить торрент-клиент [клик для Windows], (для мобильного найдите на Play Маркет).
2. Кликнуть по [Скачать]


Внимание.
Если проверка ВЫ НЕ РОБОТ - не работает, значит Вы используете устаревший браузер.
Установите актуальный браузер и повторно кликните по [Скачать]
Безопасность: торрент-клиент разрешён АВ Касперского.

[asmlocator.ru].t611427.torrent 
Торрент: Зарегистрирован [ 2019-02-14 23:35 ] · 05B31D50F35A911D87863F09EF44A3DCA6240352

Скачать .torrent

Скачать

33 KB

Статус: проверено
Скачан: 0 раз
Размер: 6,46 GB
terms.php
[Профиль] [ЛС]
Показать сообщения:    
Ответить на тему

Текущее время: 14-Окт 08:42

Часовой пояс: UTC ± 0



Вы не можете начинать темы
Вы не можете отвечать на сообщения
Вы не можете редактировать свои сообщения
Вы не можете удалять свои сообщения
Вы не можете голосовать в опросах
Вы не можете прикреплять файлы к сообщениям
Вы можете скачивать файлы
Верим фактам, а не вранью Путина! Факт, что Правительство ведёт Россию к истреблению.
Так как численность населения падает, даже не смотря на приток эмигрантов!
Русская нация вымирает и вырождается, смешиваясь с эмигрантами!
Факт, что военных и граждан предприятий заставляют голосовать за партию Единая Россия и Путина
ПОД СТРАХОМ УВОЛЬНЕНИЯ!
Нам не нужно Правительство, блокирующее личную жизнь, интернет, нарушающее сохранность данных.
Все эти действия финансируются за счёт народа!