В поисках йети / Миссия Катманду: Приключения Нелли и Саймона / Mission Kathmandu: The Adventures of Nelly & Simon (Пьер Греко, Нэнси Севард / Pierre Greco, Nancy Florence Savard) [2017, Канада, Мультфильм, комедия, приключения, DVD9] R5 Dub

Ответить на тему
Статистика раздачи
Размер:  4,9 GB   |    Зарегистрирован:  7 месяцев 16 дней   |    Скачан:  0 раз

Полного источника не было: Никогда

 
   
 
 
Автор Сообщение

star21 ®

Пол: Женский

Стаж: 3 года 10 месяцев

Сообщений: 551989

Откуда: Екатеринбург

Создавать темы 01-Фев-2019 21:56

[Цитировать]

В поисках йети / Миссия Катманду: Приключения Нелли и Саймона / Mission Kathmandu: The Adventures of Nelly & Simon Страна: Канада
Студии: Cinema Management Group, Productions 10th Ave
Жанр: Мультфильм, комедия, приключения
Год выпуска: 2017Дата мировой премьеры: 5 октября 2017
Дата российской премьеры: 9 августа 2018, «MEGOGO Distribution»Продолжительность: 01:20:42
Перевод: Профессиональный (дублированный) [Лицензия]
Субтитры: Нет
Оригинальная аудиодорожка: НетРежиссер: Пьер Греко, Нэнси Севард / Pierre Greco, Nancy Florence Savard
Продюсер: Нэнси Севард
Роли озвучивали: Сильви Моро, Гийом Леме-Тивьерж, Рашид Бадури, Александрина Уоррен, Stephane Crete, Эдгар Фруатье, Себастьен Бенуа, Бертран Ален, Simon-Pierre Gariépy, Мартин БойлиОписание:
Увлекательные приключения частного детектива Нелли и ботаника-ученого Саймона, которые искренне верят в существование снежного человека Йети.Чтобы доказать, что мифический зверь существует, исследователям придется отправиться в самое сердце Гималаев и найти его!Доп. материалы: Анонсы, Фотогалерея[imdb]http://www.imdb.com/title/tt5433884[/imdb] Качество: DVD9 R5
Формат: DVD-VideoВидео: MPEG-2, 720x576@1024x576 (PAL 16:9), ~7000 Кбит/сек
Аудио: AC3 5.1, 448 Кбит/сек [Русский - дублированный]

DVDInfo

Title: Mission Kathmandu. The Adventures of Nelly & Simon (2017) DVD9 R5
Size: 4.90 Gb ( 5 140 286,00 KBytes ) - DVD-9
Enabled regions: 1, 2, 3, 4, 5, 6, 7, 8VTS_01 :
Play Length: 00:00:15
Video: PAL 4:3 (720x576) VBR
Audio:
Not specified (Dolby AC3, 2 ch)VTS_02 :
Play Length: 00:00:05
Video: PAL 16:9 (720x576) VBR, Auto Letterboxed
Audio:
Not specified (Dolby AC3, 2 ch)VTS_03 :
Play Length: 00:00:57
Video: PAL 16:9 (720x576) VBR, Auto Letterboxed
Audio:
Russian (Dolby AC3, 2 ch)VTS_04 :
Play Length: 00:01:30
Video: PAL 16:9 (720x576) VBR, Auto Letterboxed
Audio:
Russian (Dolby AC3, 2 ch)VTS_05 :
Play Length: 00:02:24
Video: PAL 16:9 (720x576) VBR, Auto Letterboxed
Audio:
Russian (Dolby AC3, 2 ch)VTS_06 :
Play Length: 00:01:46
Video: PAL 16:9 (720x576) VBR, Auto Letterboxed
Audio:
Russian (Dolby AC3, 2 ch)VTS_07 :
Play Length: 01:20:42
Video: PAL 16:9 (720x576) VBR, Auto Letterboxed
Audio:
Russian, AC3, 3/2 (L,C,R,SL,SR)+LFE ch, 448 kbps, Delay 0 mSecVTS_08 :
Play Length: 00:00:01
Video: PAL 16:9 (720x576) VBR, Auto Letterboxed
Audio:
Russian (Dolby AC3, 2 ch)
Francais (Dolby AC3, 2 ch)
Subtitles:
RussianVTS_09 :
Play Length: 00:09:00
Video: PAL 16:9 (720x576) VBR, Auto Letterboxed
Audio:
Not specified (Dolby AC3, 2 ch)

MediaInfo

Общее
Полное имя : V:\Torrents\Mission Kathmandu. The Adventures of Nelly & Simon (2017) DVD9 R5\VIDEO_TS\VTS_07_2.VOB
Формат : MPEG-PS
Размер файла : 1000 Мбайт
Продолжительность : 18 м. 15 с.
Режим общего битрейта : Переменный
Общий поток : 7661 Кбит/секВидео
Идентификатор : 224 (0xE0)
Формат : MPEG Video
Версия формата : Version 2
Профиль формата : Main@Main
Настройки формата : BVOP
Параметр BVOP формата : Да
Параметр матрицы формата : По умолчанию
Параметр GOP формата : M=3, N=12
Продолжительность : 18 м. 15 с.
Вид битрейта : Переменный
Битрейт : 7060 Кбит/сек
Максимальный битрейт : 9500 Кбит/сек
Ширина : 720 пикселей
Высота : 576 пикселей
Соотношение сторон : 16:9
Частота кадров : 25,000 кадров/сек
Стандарт вещания : PAL
Цветовое пространство : YUV
Субдискретизация насыщенности : 4:2:0
Битовая глубина : 8 бит
Тип развёртки : Прогрессивная
Метод сжатия : С потерями
Бит/(Пиксели*Кадры) : 0.681
Временной код первого кадра : 00:19:27:06
Оригинал временного кода : Group of pictures header
GOP, открыто/закрыто : Открыто
Размер потока : 922 Мбайт (92%)Аудио
Идентификатор : 189 (0xBD)-128 (0x80)
Формат : AC-3
Формат/Информация : Audio Coding 3
Параметр Endianness формата : Big
Режим смешивания : DVD-Video
Продолжительность : 18 м. 15 с.
Вид битрейта : Постоянный
Битрейт : 448 Кбит/сек
Каналы : 6 каналов
Расположение каналов : Front: L C R, Side: L R, LFE
Частота : 48,0 КГц
Частота кадров : 31,250 кадров/сек (1536 SPF)
Битовая глубина : 16 бит
Метод сжатия : С потерями
Задержка видео : -344 мс.
Размер потока : 58,5 Мбайт (6%)
ServiceKind/String : Complete MainМеню

Скриншоты меню

Скриншоты фильма

За предоставленный DVD спасибо большое AKIM2BРаздаю с 15:00 до 23:00 до 10 скачавших.

Чтобы скачать этот контент, Вам необходимо:
1. Скачать и установить торрент-клиент [клик для Windows], (для мобильного найдите на Play Маркет).
2. Кликнуть по [Скачать]


Внимание.
Если проверка ВЫ НЕ РОБОТ - не работает, значит Вы используете устаревший браузер.
Установите актуальный браузер и повторно кликните по [Скачать]
Безопасность: торрент-клиент разрешён АВ Касперского.

[asmlocator.ru].t604835.torrent 
Торрент: Зарегистрирован [ 2019-02-01 21:55 ] · 322B4DE128E7DB8F277EC98599ECA135B6FB0442

Скачать .torrent

Скачать

27 KB

Статус: проверено
Скачан: 0 раз
Размер: 4,9 GB
terms.php
[Профиль] [ЛС]
Показать сообщения:    
Ответить на тему

Текущее время: 18-Сен 13:49

Часовой пояс: UTC ± 0



Вы не можете начинать темы
Вы не можете отвечать на сообщения
Вы не можете редактировать свои сообщения
Вы не можете удалять свои сообщения
Вы не можете голосовать в опросах
Вы не можете прикреплять файлы к сообщениям
Вы можете скачивать файлы
Верим фактам, а не вранью Путина! Факт, что Правительство ведёт Россию к истреблению.
Так как численность населения падает, даже не смотря на приток эмигрантов!
Русская нация вымирает и вырождается, смешиваясь с эмигрантами!
Факт, что военных и граждан предприятий заставляют голосовать за партию Единая Россия и Путина
ПОД СТРАХОМ УВОЛЬНЕНИЯ!
Нам не нужно Правительство, блокирующее личную жизнь, интернет, нарушающее сохранность данных.
Все эти действия финансируются за счёт народа!