П.И. Чайковский - Щелкунчик (Нуньес,Мунтагиров,ОСалливан,Самбе,Авис) [2018, ballet, HDTV]

Ответить на тему
Статистика раздачи
Размер:  21,58 GB   |    Зарегистрирован:  11 месяцев 11 дней   |    Скачан:  0 раз

Полного источника не было: 8 месяцев 21 день

 
   
 
 
Автор Сообщение

star21 ®

Пол: Женский

Стаж: 4 года

Сообщений: 551946

Откуда: Екатеринбург

Создавать темы 04-Дек-2018 11:50

[Цитировать]

П.И. Чайковский - Щелкунчик (Нуньес,Мунтагиров,ОСалливан,Самбе,Авис) Год выпуска: 2018Лейбл: Royal Opera House
Страна-производитель: Великобритания
Жанр: ballet
Продолжительность: 2:40:38
Язык: английский
Перевод: нет
Субтитры: нет
Режиссер/Хореограф: Peter Wright after Lev Ivanov
Исполнители: Нуньес,Мунтагиров,ОСалливан,Самбе,Авис
Треклист:

скрытый текст

На новогодний праздник в дом Штальбаумов собираются гости. Среди них и Дроссельмейер, крестный отец Мари и Фрица — детей Штальбаумов. Он приготовил им чудесный подарок — забавного Щелкунчика.
Дети с нетерпением ждут, когда им, наконец, покажут елку и праздничные подарки. Желанный миг наступает: перед всеми предстает нарядная елка.
Неожиданно в костюме волшебника появляется не узнанный детьми Дроссельмейер. Способность незнакомого гостя оживлять игрушки приводит детей в восторг, но, как и все таинственное, невольно вызывает страх. Чтобы рассеять его, Дроссельмейер снимает маску, и дети узнают в нем своего любимого крестного.
Мари хочется поиграть с чудесными ожившими куклами, но... их уже унесли. В утешение Дроссельмейер дарит Мари Щелкунчика. Нескладный, смешной человечек очень нравится ей.
Брат Мари Фриц, шалун и насмешник, нечаянно ломает игрушку. С нежностью Мари утешает своего покалеченного любимца и бережно укачивает его. Фриц с друзьями, надев маски мышей, дразнят огорченную Мари. Из соседней комнаты возвращаются гости. Последний церемонный танец (гросфатер) — и все уходят.
Ночь. Комната, где стоит елка, освещена лунным светом. Она кажется таинственной, полной волшебных тайн. Превозмогая страх, Мари пришла сюда проведать «больного» Щелкунчика. Она обнимает и убаюкивает его.
И в это время появляется... Дроссельмейер. Это уже не просто добрый крестный, это — чародей. По мановению его руки все вокруг преображается: стены раздвигаются, елка начинает расти. Вместе с ней оживают и растут игрушки.
Вдруг из-под пола появляются мыши во главе со своим Мышиным королем. Куклы в ужасе и смятении. Только находчивость и храбрость Щелкунчика спасает всех: выстроив оловянных солдатиков, он смело ведет их на битву с мышиным войском. Однако силы не равны. Щелкунчик остается один против Мышиного короля и всей его свиты. Мари в отчаянии: ее любимцу грозит опасность. Но Дроссельмейер протягивает ей горящую свечу, она кидает ее в мышей, и те в испуге бросаются врассыпную.
Поле битвы пустеет. Лишь один Щелкунчик неподвижно лежит на полу. Мари вместе с куклами спешит на помощь.
И случается чудо... Перед Мари — прекрасный юноша Щелкунчик-принц. Он идет ей навстречу.
Исчезают стены дома. Мари и ее друзья оказываются под куполом звездного неба, около сказочной елки.
В волшебном хороводе кружатся легкие снежинки. Мари и Щелкунчика-принца манит к себе, как прекрасная мечта, звезда, мерцающая на верхушке елки. Они садятся в волшебную ладью и устремляются к вершине. Куклы следуют за ними.
Мари и Щелкунчик-принц в волшебной ладье плывут по елочному царству. С ними их друзья — куклы. Все ближе и ближе сияющая звезда, вот они уже почти достигли вершины сказочной елки...
Но крадущиеся сзади мыши с Мышиным королем внезапно нападают на них. Щелкунчик-принц снова смело принимает бой. Мари и куклы с испугом наблюдают за поединком. Щелкунчик-принц побеждает врага.
Все радостно празднуют победу. Танцуют куклы. Ярче горят свечи, оживает елка. Злые мыши побеждены! Мари и принц-Щелкунчик счастливы — они достигли царства мечты.
Но все это только сон... Минула новогодняя ночь, и вместе с нею ушли чудесные грезы... Мари, ощутившая на себе дыхание сказочной мечты, сидит около своей елки, дома, на ее коленях кукла Щелкунчик.
Описание:

скрытый текст

The NutcrackerThe Royal Ballet
3 December 2018—15 January 2019
Main StageA Christmas treat for the whole family and a classic with a special place in the hearts of ballet fans around the world.
Доп. информация:

скрытый текст

General
ID : 1 (0x1)
Complete name : N:\The NutCracker.ts
Format : MPEG-TS
File size : 21.6 GiB
Duration : 2 h 40 min
Overall bit rate mode : Variable
Overall bit rate : 19.3 Mb/sVideo
ID : 308 (0x134)
Menu ID : 1 (0x1)
Format : AVC
Format/Info : Advanced Video Codec
Format profile : High@L4.1
Format settings : CABAC / 4 Ref Frames
Format settings, CABAC : Yes
Format settings, ReFrames : 4 frames
Format settings, GOP : M=3, N=24
Codec ID : 27
Duration : 2 h 40 min
Bit rate : 17.9 Mb/s
Width : 1 920 pixels
Height : 1 080 pixels
Display aspect ratio : 16:9
Frame rate : 25.000 FPS
Color space : YUV
Chroma subsampling : 4:2:0
Bit depth : 8 bits
Scan type : Interlaced
Scan type, store method : Separated fields
Scan order : Top Field First
Bits/(Pixel*Frame) : 0.344
Stream size : 20.0 GiB (93%)
Color range : Limited
Color primaries : BT.709
Transfer characteristics : BT.709
Matrix coefficients : BT.709Audio
ID : 256 (0x100)
Menu ID : 1 (0x1)
Format : AC-3
Format/Info : Audio Coding 3
Codec ID : 6
Duration : 2 h 40 min
Bit rate mode : Constant
Bit rate : 448 kb/s
Channel(s) : 6 channels
Channel positions : Front: L C R, Side: L R, LFE
Sampling rate : 48.0 kHz
Frame rate : 31.250 FPS (1536 SPF)
Bit depth : 16 bits
Compression mode : Lossy
Delay relative to video : 144 ms
Stream size : 514 MiB (2%)
Language : English
Service kind : Complete MainMenu
ID : 32 (0x20)
Menu ID : 1 (0x1)
Duration : 2 h 40 min
List : 308 (0x134) (AVC) / 256 (0x100) (AC-3, English)
Language : / English
Maximum bit rate : 200000000
Качество видео: HDTV
Формат/Контейнер: TS
Видео кодек: H.264
Аудио кодек: AC3
Видео поток: MPEG4 Video (H264) 1920x1080 25fps 17,9 мбит/сек
Аудио поток: Dolby AC3 48000Hz 6ch 448kbps

Скриншоты


Чтобы скачать этот контент, Вам необходимо:
1. Скачать и установить торрент-клиент [клик для Windows], (для мобильного найдите на Play Маркет).
2. Кликнуть по [Скачать]


Внимание.
Если проверка ВЫ НЕ РОБОТ - не работает, значит Вы используете устаревший браузер.
Установите актуальный браузер и повторно кликните по [Скачать]
Безопасность: торрент-клиент разрешён АВ Касперского.

[mail.asmlocator.ru].t593439.torrent 
Торрент: Зарегистрирован [ 2018-12-04 11:50 ] · B4983EB391C4F28187B745AE070EACE38A1015FB

Скачать .torrent

Скачать

108 KB

Статус: проверено
Скачан: 0 раз
Размер: 21,58 GB
terms.php
[Профиль] [ЛС]
Показать сообщения:    
Ответить на тему

Текущее время: 15-Ноя 16:21

Часовой пояс: UTC ± 0



Вы не можете начинать темы
Вы не можете отвечать на сообщения
Вы не можете редактировать свои сообщения
Вы не можете удалять свои сообщения
Вы не можете голосовать в опросах
Вы не можете прикреплять файлы к сообщениям
Вы можете скачивать файлы
Верим фактам, а не вранью Путина! Факт, что Правительство ведёт Россию к истреблению.
Так как численность населения падает, даже не смотря на приток эмигрантов!
Русская нация вымирает и вырождается, смешиваясь с эмигрантами!
Факт, что военных и граждан предприятий заставляют голосовать за партию Единая Россия и Путина
ПОД СТРАХОМ УВОЛЬНЕНИЯ!
Нам не нужно Правительство, блокирующее личную жизнь, интернет, нарушающее сохранность данных.
Все эти действия финансируются за счёт народа!