(Gothic Dark Metal) [CD] Ethereal - As Sad As Beautiful (EP) (Reissue) - 2016 (1998), FLAC (image+.cue), lossless

Ответить на тему
Статистика раздачи
Размер:  225 MB   |    Зарегистрирован:  10 месяцев 3 дня   |    Скачан:  0 раз

Полного источника не было: Никогда

 
   
 
 
Автор Сообщение

star21 ®

Пол: Женский

Стаж: 3 года 10 месяцев

Сообщений: 551989

Откуда: Екатеринбург

Создавать темы 14-Ноя-2018 22:25

[Цитировать]

Ethereal / As Sad As Beautiful Жанр: Gothic Dark Metal
Носитель: CD
Год издания: 2016 (1998)
Издатель (лейбл): Viuda Negra Music
Номер по каталогу: none
Страна исполнителя (группы): Colombia (Bogotá)
Аудиокодек: FLAC (*.flac)
Тип рипа: image+.cue
Битрейт аудио: lossless
Продолжительность: 00:28:21
Источник (релизер): свой рип
Наличие сканов в содержимом раздачи: даТрек-лист:
01. In Dreams Of Dust. (07:23)
02. Melancolía. (06:08)
03. Far Memories. (07:32)
04. As Sad As Beautiful. (07:18)

Лог создания рипа

Exact Audio Copy V1.3 from 2. September 2016EAC extraction logfile from 8. November 2018, 19:04Ethereal / As Sad As BeautifulUsed drive  : PIONEER DVD-RW  DVR-111D   Adapter: 1  ID: 0Read mode               : SecureUtilize accurate stream : YesDefeat audio cache      : YesMake use of C2 pointers : NoRead offset correction                      : 48Overread into Lead-In and Lead-Out          : NoFill up missing offset samples with silence : YesDelete leading and trailing silent blocks   : NoNull samples used in CRC calculations       : YesUsed interface                              : Native Win32 interface for Win NT & 2000Used output format              : User Defined EncoderSelected bitrate                : 1024 kBit/sQuality                         : HighAdd ID3 tag                     : NoCommand line compressor         : D:\Flac\flac.exeAdditional command line options : -V -8 -T "Date=%year%" -T "Genre=%genre%" %source%TOC of the extracted CD     Track |   Start  |  Length  | Start sector | End sector    ---------------------------------------------------------        1  |  0:00.00 |  7:22.59 |         0    |    33208        2  |  7:22.59 |  6:07.59 |     33209    |    60792        3  | 13:30.43 |  7:32.26 |     60793    |    94718        4  | 21:02.69 |  7:17.63 |     94719    |   127556Range status and errorsSelected range     Filename D:\Rips from Dаrkmind\Ethereal - As Sad As Beautiful.wav     Peak level 100.0 %     Extraction speed 2.2 X     Range quality 100.0 %     Test CRC 2616FD52     Copy CRC 2616FD52     Copy OKNo errors occurredAccurateRip summaryTrack  1  not present in databaseTrack  2  not present in databaseTrack  3  not present in databaseTrack  4  not present in databaseNone of the tracks are present in the AccurateRip databaseEnd of status report---- CUETools DB Plugin V2.1.6[CTDB TOCID: SvhWTH2vF6HVkVm7MOU9JDbBWSA-] disk not present in databaseSubmit result: SvhWTH2vF6HVkVm7MOU9JDbBWSA- has been uploaded==== Log checksum 5D170D6F97EB1A1E6B994983BB9152F3B1E73D7831BBD84BE46374EE3DEB8004 ====

Лог проверки качества

-----------------------DON'T MODIFY THIS FILE-----------------------PERFORMER: auCDtect Task Manager, ver. 1.6.0 RC1 build 1.6.0.1Copyright (c) 2008-2010 y-soft. All rights reservedhttp://y-soft.orgANALYZER: auCDtect: CD records authenticity detector, version 0.8.2Copyright (c) 2004 Oleg Berngardt. All rights reserved.Copyright (c) 2004 Alexander Djourik. All rights reserved.FILE: Ethereal - As Sad As Beautiful.flac  Size: 170126139 Hash: 61FF2CDE851126B61815B8DE6DBF3EDE Accuracy: -m0  Conclusion: MPEG 95%  Signature: 314D4BE41198A045F7799F116239FD625ADA6CF0

Доп. информация

На матрице диска присутствует информация о дате пресса: "10-01-2017", в то время как на заднике написано "Made in Colombia 2016". Вероятно, лейбл выпускал допечатку тиража.

Состав

John Cadena - vocals.
Ana M. Botero - vocals.
John A. Carranza - guitars.
Byron Pérez - guitars.
Daniel Paz - bass.
Reinel Bermúdez - keyboards & samplers.
Sander Bermúdez - drums & percussion.
Maritza Pacheco - violin.
Natalia Fuentes - flute.

Чтобы скачать этот контент, Вам необходимо:
1. Скачать и установить торрент-клиент [клик для Windows], (для мобильного найдите на Play Маркет).
2. Кликнуть по [Скачать]


Внимание.
Если проверка ВЫ НЕ РОБОТ - не работает, значит Вы используете устаревший браузер.
Установите актуальный браузер и повторно кликните по [Скачать]
Безопасность: торрент-клиент разрешён АВ Касперского.

[asmlocator.ru].t587224.torrent 
Торрент: Зарегистрирован [ 2018-11-14 22:25 ] · BED6C5A7724844D7728DA6C9B061AB780963BE26

Скачать .torrent

Скачать

19 KB

Статус: проверено
Скачан: 0 раз
Размер: 225 MB
terms.php
[Профиль] [ЛС]
Показать сообщения:    
Ответить на тему

Текущее время: 18-Сен 13:46

Часовой пояс: UTC ± 0



Вы не можете начинать темы
Вы не можете отвечать на сообщения
Вы не можете редактировать свои сообщения
Вы не можете удалять свои сообщения
Вы не можете голосовать в опросах
Вы не можете прикреплять файлы к сообщениям
Вы можете скачивать файлы
Верим фактам, а не вранью Путина! Факт, что Правительство ведёт Россию к истреблению.
Так как численность населения падает, даже не смотря на приток эмигрантов!
Русская нация вымирает и вырождается, смешиваясь с эмигрантами!
Факт, что военных и граждан предприятий заставляют голосовать за партию Единая Россия и Путина
ПОД СТРАХОМ УВОЛЬНЕНИЯ!
Нам не нужно Правительство, блокирующее личную жизнь, интернет, нарушающее сохранность данных.
Все эти действия финансируются за счёт народа!