[SACD-R][OF] Mahler - Symphony No. 1 - Jonathan Nott, Bamberger Symphoniker - 2009 (Classical)

Ответить на тему
Статистика раздачи
Размер:  2,82 GB   |    Зарегистрирован:  10 месяцев 17 дней   |    Скачан:  0 раз

Полного источника не было: Никогда

 
   
 
 
Автор Сообщение

star21 ®

Пол: Женский

Стаж: 3 года 10 месяцев

Сообщений: 551989

Откуда: Екатеринбург

Создавать темы 04-Ноя-2018 09:05

[Цитировать]

Jonathan Nott, Bamberger Symphoniker / Mahler - Symphony No. 1 Формат записи/Источник записи: [SACD-R][OF]
Наличие водяных знаков: Нет
Год издания/переиздания диска: 2009
Жанр: Classical
Издатель (лейбл): Tudor
Продолжительность: 00:55:23
Наличие сканов в содержимом раздачи: Только обложка альбомаТреклист:
Mahler: Symphony No. 1 in D major 'Titan' 55:22
01. I. Langsam, schleppend 16:26
02. II. Kraftig bewegt, doch nicht zu schnell 8:10
03. III. Feierlich und gemessen, ohne zu schleppen 10:53
04. IV. Sturmisch bewegt 19:53Bamberger Symphoniker
Jonathan NottКонтейнер: ISO (*.iso)
Тип рипа: imageРазрядность: 64(2,8 MHz/1 Bit)
Формат: DST64
Количество каналов: 5.1 + 2.0

Лог проверки качества

foobar2000 1.4 / Dynamic Range Meter 1.1.1log date: 2018-11-04 10:01:26--------------------------------------------------------------------------------Analyzed: Jonathan Nott - Bamberger Symphoniker / Gustav Mahler: Symphonie Nr. 1--------------------------------------------------------------------------------DR         Peak         RMS     Duration Track--------------------------------------------------------------------------------DR19      -7.71 dB   -36.57 dB     16:26 01-Langsam. Schleppend. Im Anfang sehr gemaechlichDR15     -10.47 dB   -34.14 dB      8:11 02-Kraeftig bewegt, doch nicht zu schnell - Trio: Recht gemaechlichDR16     -17.77 dB   -42.45 dB     10:53 03-Feierlich und gemessen, ohne zu schleppenDR17      -6.17 dB   -29.79 dB     19:53 04-Stuermisch bewegt--------------------------------------------------------------------------------Number of tracks:  4Official DR value: DR17Samplerate:        2822400 Hz / PCM Samplerate: 88200 HzChannels:          6Bits per sample:   1Bitrate:           16934 kbpsCodec:             DST64================================================================================--------------------------------------------------------------------------------Analyzed: Jonathan Nott - Bamberger Symphoniker / Gustav Mahler: Symphonie Nr. 1--------------------------------------------------------------------------------DR         Peak         RMS     Duration Track--------------------------------------------------------------------------------DR19      -6.62 dB   -32.52 dB     16:26 01-Langsam. Schleppend. Im Anfang sehr gemaechlichDR16      -7.64 dB   -29.57 dB      8:11 02-Kraeftig bewegt, doch nicht zu schnell - Trio: Recht gemaechlichDR17     -15.70 dB   -39.02 dB     10:53 03-Feierlich und gemessen, ohne zu schleppenDR14      -5.62 dB   -25.93 dB     19:53 04-Stuermisch bewegt--------------------------------------------------------------------------------Number of tracks:  4Official DR value: DR16Samplerate:        2822400 Hz / PCM Samplerate: 88200 HzChannels:          2Bits per sample:   1Bitrate:           5645 kbpsCodec:             DST64================================================================================
Доп. информация: https://www.prestomusic.com/classical/products/7964985--mahler-symphony-no-1-in-d-major-titan
https://www.amazon.co.uk/Mahler-Symphony-No-Hybrid-SACD/dp/B001RX3KR4
Источник (релизер): собственный рип
Оркестр: Bamberger Symphoniker
Композитор: Gustav Mahler
Дирижер: Jonathan Nott

Чтобы скачать этот контент, Вам необходимо:
1. Скачать и установить торрент-клиент [клик для Windows], (для мобильного найдите на Play Маркет).
2. Кликнуть по [Скачать]


Внимание.
Если проверка ВЫ НЕ РОБОТ - не работает, значит Вы используете устаревший браузер.
Установите актуальный браузер и повторно кликните по [Скачать]
Безопасность: торрент-клиент разрешён АВ Касперского.

[asmlocator.ru].t583845.torrent 
Торрент: Зарегистрирован [ 2018-11-04 09:05 ] · CC5E1579B8629FC658C430B29861B31DD4297333

Скачать .torrent

Скачать

29 KB

Статус: проверено
Скачан: 0 раз
Размер: 2,82 GB
terms.php
[Профиль] [ЛС]
Показать сообщения:    
Ответить на тему

Текущее время: 22-Сен 06:05

Часовой пояс: UTC ± 0



Вы не можете начинать темы
Вы не можете отвечать на сообщения
Вы не можете редактировать свои сообщения
Вы не можете удалять свои сообщения
Вы не можете голосовать в опросах
Вы не можете прикреплять файлы к сообщениям
Вы можете скачивать файлы
Верим фактам, а не вранью Путина! Факт, что Правительство ведёт Россию к истреблению.
Так как численность населения падает, даже не смотря на приток эмигрантов!
Русская нация вымирает и вырождается, смешиваясь с эмигрантами!
Факт, что военных и граждан предприятий заставляют голосовать за партию Единая Россия и Путина
ПОД СТРАХОМ УВОЛЬНЕНИЯ!
Нам не нужно Правительство, блокирующее личную жизнь, интернет, нарушающее сохранность данных.
Все эти действия финансируются за счёт народа!