Река любви / Ishqedarriyaan (В.К. Пракаш / V.K. Prakash) [2015, Индия, мелодрама, DVB] MVO (Astana TV)

Ответить на тему
Статистика раздачи
Размер:  1,88 GB   |    Зарегистрирован:  11 месяцев 22 дня   |    Скачан:  3 раза

Полного источника не было: 1 день 13 часов

 
   
 
 
Автор Сообщение

star21 ®

Пол: Женский

Стаж: 3 года 11 месяцев

Сообщений: 551988

Откуда: Екатеринбург

Создавать темы 29-Окт-2018 19:00

[Цитировать]

Река любви
Ishqedarriyaan
Страна: Индия
Жанр: мелодрама
Продолжительность: 02:07:18
Год выпуска: 2015
Перевод: Профессиональный (многоголосый закадровый)
Субтитры: отсутствуютРежиссёр: В.К. Пракаш: V.K. Prakash
В ролях: Махакшай (Мимох) Чакраборти, Эвелин Шарма, Врушали Чаван, Кавин Дэйв, Рави Кхему, Сухасини Мулай, Мохит Дутта.О фильме: Агам Диван, справедливый и честный бизнесмен, посещает семьи, которые стали жертвами неправильных поступков отца. Во время одного из таких визитов в такую семью он встречает Лавлин, школа которой находится на грани закрытия из-за отсутствия финансов. В конце концов он влюбляется в нее, не подозревая, что она влюблена в другого человека, певца из её города по имени Арджун. Тем не менее, семья Арджуна не одобряет их отношений в связи с их более высоким статусом.
Агам помогает Лавлин решить её финансовые проблемы, скрыв от неё, что он сын того самого человека, который обидел её семью…
[imdb]http://www.imdb.com/title/tt4610308[/imdb]
Семпл: https://www.sendspace.com/file/j811j4Данный фильм вместе с русским переводом появляется на трекере впервые.Качество: DVB [Astana TV] (эфир 27.10.2018)
Формат: TS
Видео: AVC, 720x576 @ 1047x576 (16:9), 25 fps, ~1819 kbps, 0.175 bit/pixel
Аудио: [RUS] 48 kHz, MP2, 2 ch, 192 kbps

Mediainfo

GeneralID                          : 1 (0x1)Complete name               : H:\Раздачи\Река любви (2015) [Astana TV].tsFormat                      : MPEG-TSFile size                   : 1.88 GiBDuration                    : 2 h 7 minOverall bit rate mode       : VariableOverall bit rate            : 2 117 kb/sVideoID                          : 67 (0x43)Menu ID                     : 1 (0x1)Format                      : AVCFormat/Info                 : Advanced Video CodecFormat profile              : High@L3Format settings             : CABAC / 3 Ref FramesFormat settings, CABAC      : YesFormat settings, ReFrames   : 3 framesCodec ID                    : 27Duration                    : 2 h 7 minBit rate                    : 1 819 kb/sWidth                       : 720 pixelsHeight                      : 576 pixelsDisplay aspect ratio        : 16:9Frame rate                  : 25.000 FPSStandard                    : ComponentColor space                 : YUVChroma subsampling          : 4:2:0Bit depth                   : 8 bitsScan type                   : InterlacedScan type, store method     : Separated fieldsScan order                  : Top Field FirstBits/(Pixel*Frame)          : 0.175Stream size                 : 1.62 GiB (86%)Color range                 : LimitedColor primaries             : BT.601 PALTransfer characteristics    : BT.470 System B/GMatrix coefficients         : BT.470 System B/GAudioID                          : 68 (0x44)Menu ID                     : 1 (0x1)Format                      : MPEG AudioFormat version              : Version 1Format profile              : Layer 2Codec ID                    : 3Duration                    : 2 h 7 minBit rate mode               : ConstantBit rate                    : 192 kb/sChannel(s)                  : 2 channelsSampling rate               : 48.0 kHzFrame rate                  : 41.667 FPS (1152 SPF)Compression mode            : LossyStream size                 : 175 MiB (9%)Language                    : English

Скриншоты

Чтобы скачать этот контент, Вам необходимо:
1. Скачать и установить торрент-клиент [клик для Windows], (для мобильного найдите на Play Маркет).
2. Кликнуть по [Скачать]


Внимание.
Если проверка ВЫ НЕ РОБОТ - не работает, значит Вы используете устаревший браузер.
Установите актуальный браузер и повторно кликните по [Скачать]
Безопасность: торрент-клиент разрешён АВ Касперского.

[mail.asmlocator.ru].t581663.torrent 
Торрент: Зарегистрирован [ 2018-10-29 19:00 ] · 99052E4ABD4A8C3588D4A634004A3004519AED31

Скачать .torrent

Скачать

19 KB

Статус: проверено
Скачан: 3 раз
Размер: 1,88 GB
terms.php
[Профиль] [ЛС]
Показать сообщения:    
Ответить на тему

Текущее время: 21-Окт 10:10

Часовой пояс: UTC ± 0



Вы не можете начинать темы
Вы не можете отвечать на сообщения
Вы не можете редактировать свои сообщения
Вы не можете удалять свои сообщения
Вы не можете голосовать в опросах
Вы не можете прикреплять файлы к сообщениям
Вы можете скачивать файлы
Верим фактам, а не вранью Путина! Факт, что Правительство ведёт Россию к истреблению.
Так как численность населения падает, даже не смотря на приток эмигрантов!
Русская нация вымирает и вырождается, смешиваясь с эмигрантами!
Факт, что военных и граждан предприятий заставляют голосовать за партию Единая Россия и Путина
ПОД СТРАХОМ УВОЛЬНЕНИЯ!
Нам не нужно Правительство, блокирующее личную жизнь, интернет, нарушающее сохранность данных.
Все эти действия финансируются за счёт народа!