[TR24][OF][FM] Работа без авторства / Werk ohne Autor (Original Motion Picture Soundtrack) (by Max Richter) - 2018 (Score)

Ответить на тему
Статистика раздачи
Размер:  762 MB   |    Зарегистрирован:  1 год   |    Скачан:  0 раз

Полного источника не было: Никогда

 
   
 
 
Автор Сообщение

star21 ®

Пол: Женский

Стаж: 3 года 11 месяцев

Сообщений: 551988

Откуда: Екатеринбург

Создавать темы 05-Окт-2018 23:40

[Цитировать]

Max Richter - Werk ohne Autor Формат записи/Источник записи: [TR24][OF][FM]
Наличие водяных знаков: Нет
Год издания: 2018
Жанр: Score
Издатель (лейбл): Deutsche Grammophon
Продолжительность: 01:11:04
Наличие сканов в содержимом раздачи: Буклет PDF
Контейнер: FLAC (*.flac)
Тип рипа: tracks
Разрядность: 24/48
Формат: PCM
Количество каналов: 2.0
Источник (релизер): qobuz.comТреклист:
1. The Mind’s Eye (02:48)
2. Kurt & Elisabeth (02:51)
3. Enemy Lines (06:46)
4. Memory Lane (02:55)
5. Sleeping Lions (02:16)
6. The Professor’s Portrait (03:21)
7. The Interrogation (05:48)
8. To Belong (01:31)
9. 1951 (02:27)
10. Your Pen, Your Sword (06:05)
11. A Way Out (05:38)
12. Respite (03:35)
13. Fat & Felt (04:43)
14. Begin Again (01:49)
15. Art School (01:24)
16. The Exhibition (05:28)
17. A Blank Canvas (02:44)
18. Consequences (04:16)
19. Portraits (04:39)

Лог проверки качества

foobar2000 1.4 / Dynamic Range Meter 1.1.1log date: 2018-10-05 22:25:24--------------------------------------------------------------------------------Analyzed: Max Richter / Werk ohne Autor (Original Motion Picture Soundtrack)--------------------------------------------------------------------------------DR         Peak         RMS     Duration Track--------------------------------------------------------------------------------DR7       -4.13 dB   -15.92 dB      2:48 01-The Mind’s EyeDR11      -6.72 dB   -20.82 dB      2:51 02-Kurt & ElisabethDR10      -0.12 dB   -15.91 dB      6:47 03-Enemy LinesDR10      -2.39 dB   -17.53 dB      2:56 04-Memory LaneDR12      -0.24 dB   -18.14 dB      2:17 05-Sleeping LionsDR11      -6.27 dB   -22.03 dB      3:22 06-The Professor’s PortraitDR8       -0.66 dB   -14.81 dB      5:48 07-The InterrogationDR5       -7.84 dB   -18.04 dB      1:32 08-To BelongDR12      -4.60 dB   -21.54 dB      2:27 09-1951DR7       -0.07 dB   -12.98 dB      6:06 10-Your Pen, Your SwordDR9       -0.07 dB   -13.48 dB      5:39 11-A Way OutDR12      -2.76 dB   -19.04 dB      3:36 12-RespiteDR11     -12.94 dB   -29.22 dB      4:44 13-Fat & FeltDR7       -0.11 dB   -11.86 dB      1:50 14-Begin AgainDR12      -7.53 dB   -23.86 dB      1:24 15-Art SchoolDR10      -0.11 dB   -15.25 dB      5:28 16-The ExhibitionDR11      -9.37 dB   -26.64 dB      2:44 17-A Blank CanvasDR8       -0.10 dB   -14.29 dB      4:16 18-ConsequencesDR7       -0.09 dB   -11.71 dB      4:40 19-Portraits--------------------------------------------------------------------------------Number of tracks:  19Official DR value: DR9Samplerate:        48000 HzChannels:          2Bits per sample:   24Bitrate:           1537 kbpsCodec:             FLAC================================================================================

Об альбоме (сборнике)

With „Never Look Away“ (German title „Werk Ohne Autor“), inspired by the early life and career of renowned contemporary artist Gerhard Richter, Florian Henckel von Donnersmarck once again looks into the dark corners of his country's recent history. The German candidate for the Oscar in the „Best Foreign Language Film“ category, the drama passes through three periods of German history to recount the story of the dramatic life of the artist Kurt (Tom Schilling), his passionate love for Elisabeth (Paula Beer), and the far-reaching relationship with his devious father-in-law Professor Seeband (Sebastian Koch) whose hand in fateful events in Kurt‘s life ultimately comes to light in his art and paintings. The soundtrack was scored by composer Max Richter.About the film: With Never Look Away, inspired by the early life and career of renowned contemporary artist Gerhard Richter, Florian Henckel von Donnersmarck once again looks into the dark corners of his country's recent history. As with von Donnersmarck's Academy Award-winning The Lives of Others (TIFF '06), postwar East Germany provides fertile ground on which to explore the role of the individual within a totalitarian system that disregards the rights of its citizens. He also delves fearlessly into the reprehensible legacy of prewar Germany: eugenics, and the extermination of those considered subhuman or undesirable.Opening with the notorious exhibition of so-called Degenerate Art organized by the Nazis in 1937, the film tells the parallel stories of a doctor involved in "cleansing" allegedly racially inferior people, and of a young boy who is fascinated by art. That child later comes of age amid the chaos of postwar German partition: as a man in the DDR, Kurt (Tom Schilling) has a job creating propaganda billboards while pining to be an artist. Meanwhile, the doctor, Seeband (Sebastian Koch, in a perfectly clipped and chilling performance) is captured by the Soviets and interrogated for his role in the Nazi eugenics program.The way the fates of these two men intertwine becomes the dramatic focus of von Donnersmarck's remarkable reflection on the two sides of East Germany's political and ideological past. Kurt enters art school, where social realism is the only accepted form, but longs to express himself freely. Seeband, formerly an agent of fascism, manages to adapt and prosper in the new communist state, but his past will return to haunt him. Never Look Away is both a historical epic and an intimate tragedy about misdirected ambition, and the voyage of an artist trying to discover his voice.

Чтобы скачать этот контент, Вам необходимо:
1. Скачать и установить торрент-клиент [клик для Windows], (для мобильного найдите на Play Маркет).
2. Кликнуть по [Скачать]


Внимание.
Если проверка ВЫ НЕ РОБОТ - не работает, значит Вы используете устаревший браузер.
Установите актуальный браузер и повторно кликните по [Скачать]
Безопасность: торрент-клиент разрешён АВ Касперского.

[asmlocator.ru].t574448.torrent 
Торрент: Зарегистрирован [ 2018-10-05 23:40 ] · 3FEA5CB7AE3D57DD5D30C173EAA1A285E1163578

Скачать .torrent

Скачать

16 KB

Статус: проверено
Скачан: 0 раз
Размер: 762 MB
terms.php
[Профиль] [ЛС]
Показать сообщения:    
Ответить на тему

Текущее время: 14-Окт 00:41

Часовой пояс: UTC ± 0



Вы не можете начинать темы
Вы не можете отвечать на сообщения
Вы не можете редактировать свои сообщения
Вы не можете удалять свои сообщения
Вы не можете голосовать в опросах
Вы не можете прикреплять файлы к сообщениям
Вы можете скачивать файлы
Верим фактам, а не вранью Путина! Факт, что Правительство ведёт Россию к истреблению.
Так как численность населения падает, даже не смотря на приток эмигрантов!
Русская нация вымирает и вырождается, смешиваясь с эмигрантами!
Факт, что военных и граждан предприятий заставляют голосовать за партию Единая Россия и Путина
ПОД СТРАХОМ УВОЛЬНЕНИЯ!
Нам не нужно Правительство, блокирующее личную жизнь, интернет, нарушающее сохранность данных.
Все эти действия финансируются за счёт народа!